Why not register?


Post new topic Reply to topic  [ 11 posts ] 

All times are UTC [ DST ]

Author Message
PostPosted: Fri Mar 28, 2003 3:08 pm  Post subject: They...
Offline

Blood Sucking Freak
Joined: Tue Mar 11, 2003 5:05 pm
Posts: 213
Location: Sweden
I'm looking for:

Image

http://us.imdb.com/Title?0283632

know any nice quality sources?


Top
 Profile  
PostPosted: Sat Mar 29, 2003 6:34 pm  Post subject:
User avatar
Offline

The Ancient One
Joined: Sun Feb 23, 2003 10:03 am
Posts: 5034
Location: Norway - Where the polar bears roam the streets
Found these:

Wes Cravens They 1.bin
Wes Cravens They 2.bin

Don't know about availibility or quality..

[ Add all 2 links to your ed2k client ]

_________________
Image

My third film, winner of the Breda 48 hour film project
My first student film


Top
 Profile  
PostPosted: Sun Mar 30, 2003 3:40 pm  Post subject:
User avatar
Offline

Mod of the Living Dead
Joined: Fri Nov 22, 2002 4:30 pm
Posts: 3346
Location: Where dead angels lie
It could be nice if somebody made a decent rip of this one. I don't trust anything that has .bin in the extension.


Top
 Profile  
PostPosted: Sun Mar 30, 2003 5:24 pm  Post subject:
User avatar
Offline

The Ancient One
Joined: Sun Feb 23, 2003 10:03 am
Posts: 5034
Location: Norway - Where the polar bears roam the streets
I agree actually. I never watch cam releases or anything that shitty. I can wait till a decent rip comes along.
But some guys wanna be the first to see the movie, no-matter-what!

_________________
Image

My third film, winner of the Breda 48 hour film project
My first student film


Top
 Profile  
PostPosted: Tue Apr 01, 2003 4:06 pm  Post subject:
User avatar
Offline

The Ancient One
Joined: Thu Feb 13, 2003 6:07 pm
Posts: 4463
Location: The Cellar
u miss the cue files for this one bin files aint no good without cue files....

_________________
Image
STR - Dead but not forgotten!


Top
 Profile  
PostPosted: Tue Apr 01, 2003 7:54 pm  Post subject:
User avatar
Offline

The Ancient One
Joined: Sun Feb 23, 2003 10:03 am
Posts: 5034
Location: Norway - Where the polar bears roam the streets
didn't find any cue files.. try to extract with WinIso or something and check if the works...

_________________
Image

My third film, winner of the Breda 48 hour film project
My first student film


Top
 Profile  
PostPosted: Tue Apr 01, 2003 9:04 pm  Post subject:
Offline

The Devil, Probably
Joined: Sun Dec 08, 2002 3:07 am
Posts: 2174
Location: I'm inside of you.
eh,
cue files are is to make, unless i've just been getting lucky with all the ones i've done. Just make a txt file, add this....

FILE "Grom.CD1-DEViANCE.DonkeyNL.ShareReactor.bin" BINARY
TRACK 01 MODE1/2352
INDEX 01 00:00:00


and save it as a *.cue extension. Replace the 'Grom.CD1-DEViANCE.DonkeyNL.ShareReactor.bin' with the name of wichever *.bin file is.

Here is an alternate example, for vcd's or svcd's using mode2-

Wes Cravens They 1.cue would be this-


FILE "Wes Cravens They 1.bin" BINARY
TRACK 01 MODE2/2352
INDEX 01 00:00:00
TRACK 02 MODE2/2352
INDEX 01 00:06:00

<hr>

and Wes Cravens They 2.cue-

FILE "Wes Cravens They 2.bin" BINARY
TRACK 01 MODE2/2352
INDEX 01 00:00:00
TRACK 02 MODE2/2352
INDEX 01 00:06:00

eh, i havent done to much experimenting with *cues, but these ways seems to work for me.

u can also extract the *.dat files from the *.bin. I use isobuster.
the inside most video *.bins have these dirs

\cdi
\ext
\mpegav
\segment
\vcd

the \mpegav dir has the actual movie portion you would need, it's usually named 'avseq01.dat'. Most media players can play *.dat files, u may need the direct show filters and mp2/svcd/vcd codecs.

_________________
'You - you monster! Why? Why in God's name do you do these horrible things??!'

'I thought it was obvious, you sillly girl.
I'm a monster. I do monstrous things.'


Top
 Profile  
PostPosted: Tue Apr 01, 2003 9:09 pm  Post subject:
Offline

Blood Sucking Freak
Joined: Tue Mar 11, 2003 5:05 pm
Posts: 213
Location: Sweden
tell me if it worth to download the .bin file when you have fixed it...


Top
 Profile  
PostPosted: Wed Apr 02, 2003 9:53 pm  Post subject:
Offline

The Devil, Probably
Joined: Sun Dec 08, 2002 3:07 am
Posts: 2174
Location: I'm inside of you.
eh,
i never really even heard of the movie before. last wes craven crapfest i saw was 'dont look down' and it was one stupidly dumb dumb dumb assed movie. not even remoltely like its video cover would suggest.

_________________
'You - you monster! Why? Why in God's name do you do these horrible things??!'

'I thought it was obvious, you sillly girl.
I'm a monster. I do monstrous things.'


Top
 Profile  
PostPosted: Wed Apr 02, 2003 10:09 pm  Post subject:
User avatar
Offline

Mod of the Living Dead
Joined: Fri Nov 22, 2002 4:30 pm
Posts: 3346
Location: Where dead angels lie
monkeysmasher wrote:
eh,
i never really even heard of the movie before. last wes craven crapfest i saw was 'dont look down' and it was one stupidly dumb dumb dumb assed movie. not even remoltely like its video cover would suggest.


Unfortunately I have to agree - Craven sucks recently. He always produced crap, but it used to be better crap than this crappy crap he makes nowadays.


Top
 Profile  
PostPosted: Thu May 08, 2003 2:05 am  Post subject:
User avatar
Offline

Mod of the Living Dead
Joined: Fri Nov 22, 2002 4:30 pm
Posts: 3346
Location: Where dead angels lie
<a href=ed2k: Wes.Craven.Presents.They.DVDRip.XviD-DiAMOND.avi  [690.56 Mb] [Stats]

I also posted it in Wes Craven Collection thread.


Top
 Profile  
Display posts from previous:  Sort by  

All times are UTC [ DST ]

Post new topic Reply to topic  [ 11 posts ] 


Who is online

Users browsing this forum: No registered users and 2 guests


Moderator: Movie Mods

You cannot post new topics in this forum
You cannot reply to topics in this forum
You cannot edit your posts in this forum
You cannot delete your posts in this forum
You cannot post attachments in this forum

Search for:
Jump to:  
cron
Frontpage / Forums / Scifi


What's blood for, if not for shedding?