Why not register?


Post new topic Reply to topic  [ 1 post ] 

All times are UTC [ DST ]

Author Message
PostPosted: Sat Aug 25, 2007 2:23 am  Post subject: Tales From The Crypt Soundtrack (Various Composers - 1992)
User avatar
Offline

Master Of The Dead Donkey
Joined: Mon May 01, 2006 12:31 am
Posts: 684
Location: Just Another Freak... In The Freak Kingdom
Original Music From Tales From The Crypt (Various Composers - 1992)

Image


--------------------------------

EAC extraction logfile from 13. August 2005, 1:43 for CD
Various / Tales from the Crypt

Used output format : Internal WAV Routines
44.100 Hz; 16 Bit; Stereo

Range status and errors
Selected range
Filename D:\SF EAC Files\Tales from the Crypt.wav

Peak level 98.1 %
Range quality 99.9 %
CRC DE81A5CE
Copy OK

No errors occured

End of status report

TRACK 01 AUDIO
TITLE "Tales from the Crypt (Main Title)"
PERFORMER "Elfman Danny"
INDEX 00 00:00:00
INDEX 01 00:00:32
TRACK 02 AUDIO
TITLE "Three's a Crowd"
PERFORMER "Hammer Jan"
INDEX 00 02:27:15
INDEX 01 02:28:10
TRACK 03 AUDIO
TITLE "Cutting Cards"
PERFORMER "Horner James"
INDEX 00 06:17:45
INDEX 01 06:18:47
TRACK 04 AUDIO
TITLE "Loved to Death"
PERFORMER "Webb Jimmy"
INDEX 00 10:02:48
INDEX 01 10:04:10
TRACK 05 AUDIO
TITLE "Dead Wait"
PERFORMER "Mansfield David"
INDEX 00 13:21:55
INDEX 01 13:23:10
TRACK 06 AUDIO
TITLE "Undertaking Palor"
PERFORMER "Pike Nicholas"
INDEX 01 17:27:07
TRACK 07 AUDIO
TITLE "Carrion Death"
PERFORMER "Broughton Bruce"
INDEX 01 20:37:35
TRACK 08 AUDIO
TITLE "Ventriloquist's Dummy"
PERFORMER "Goodman Miles"
INDEX 00 24:08:38
INDEX 01 24:09:32
TRACK 09 AUDIO
TITLE "The Thing from the Grave"
PERFORMER "Newman David"
INDEX 00 27:42:00
INDEX 01 27:43:17
TRACK 10 AUDIO
TITLE "The Man Who Was Death"
PERFORMER "Cooder Ry"
INDEX 01 30:36:32
TRACK 11 AUDIO
TITLE "Reluctant Vampire"
PERFORMER "Eidelman Cliff"
INDEX 00 34:58:30
INDEX 01 34:59:05
TRACK 12 AUDIO
TITLE "Deadline"
PERFORMER "Bartek Steve"
INDEX 00 38:48:73
INDEX 01 38:49:12
TRACK 13 AUDIO
TITLE "The Crypt Jam"
PERFORMER "Crypt Keeper (John Kassir)"
INDEX 00 42:19:58
INDEX 01 42:21:15

--------------------------------

Covers included inside the archive.

ed2k: Various.Composers.(1992).Tales.from.the.Crypt.(eac.ape.cue.cvrs.dataex).rar  [246.16 Mb] [Stats]

Enjoy ! :beerchug:

_________________
Image
[Welcome To The Worst Nightmare Of All... REALITY]


Top
 Profile  
Display posts from previous:  Sort by  

All times are UTC [ DST ]

Post new topic Reply to topic  [ 1 post ] 


Who is online

Users browsing this forum: No registered users and 1 guest


You cannot post new topics in this forum
You cannot reply to topics in this forum
You cannot edit your posts in this forum
You cannot delete your posts in this forum
You cannot post attachments in this forum

Search for:
Jump to:  
Frontpage / Forums / Scifi


What's blood for, if not for shedding?