Why not register?


Post new topic Reply to topic  [ 3 posts ] 

All times are UTC [ DST ]

Author Message
PostPosted: Sat Sep 12, 2009 8:19 am  Post subject: Christopher Young (2009) Drag me to Hell (OST)
Request Territory
User avatar
Offline

Request Territory
Joined: Sat Sep 12, 2009 7:55 am
Posts: 2
Location: The Soundtrack Zone
Image

Download

Album: Drag me to Hell
Composer: Christopher Young
Style: Diabolically Delicious

Extraction: Exact Audio Copy v0.99 pb5
Compression: WavPack 4.5
Included: 300dpi scans, Cue & Log (Embedded)

Edition: Lakeshore Records (USA) LKS 340912
CD Release: 2009
Movie Release: 2009
Total Time: 52:25

Track Index
01. Drag me to Hell (2:32)
02. Mexican Devil Disaster (4:33)
03. Tale of a Haunted Banker (1:52)
04. Lamia (4:06)
05. Black Rainbows (3:24)
06. Odo to Ganush (2:23)
07. Familiar Familiars (2:11)
08. Loose Teeth (6:31)
09. Ordeal by Corpse (4:35)
10. Bealing Bells with Trumpet (5:12)
11. Brick Dogs ala Carte (1:46)
12. Muttled Buttled Brain Stew (2:51)
13. Auto-da-fe (4:31)
14. Concerto to Hell (5:59)

Link: IMDb


Code:
Exact Audio Copy V0.99 prebeta 5 from 4. May 2009

EAC extraction logfile from 29. August 2009, 1:51

Christopher Young / Drag me to Hell

Used drive  : PLEXTOR DVDR   PX-860SA   Adapter: 0  ID: 1

Read mode               : Secure
Utilize accurate stream : Yes
Defeat audio cache      : Yes
Make use of C2 pointers : Yes

Read offset correction                      : 96
Overread into Lead-In and Lead-Out          : No
Fill up missing offset samples with silence : Yes
Delete leading and trailing silent blocks   : No
Null samples used in CRC calculations       : Yes
Used interface                              : Installed external ASPI interface

Used output format : Internal WAV Routines
Sample format      : 44.100 Hz; 16 Bit; Stereo


TOC of the extracted CD

     Track |   Start  |  Length  | Start sector | End sector
    ---------------------------------------------------------
        1  |  0:00.00 |  2:32.74 |         0    |    11473   
        2  |  2:32.74 |  4:33.24 |     11474    |    31972   
        3  |  7:06.23 |  1:52.64 |     31973    |    40436   
        4  |  8:59.12 |  4:06.21 |     40437    |    58907   
        5  | 13:05.33 |  3:24.59 |     58908    |    74266   
        6  | 16:30.17 |  2:23.34 |     74267    |    85025   
        7  | 18:53.51 |  2:11.17 |     85026    |    94867   
        8  | 21:04.68 |  6:31.70 |     94868    |   124262   
        9  | 27:36.63 |  4:35.52 |    124263    |   144939   
       10  | 32:12.40 |  5:12.16 |    144940    |   168355   
       11  | 37:24.56 |  1:46.57 |    168356    |   176362   
       12  | 39:11.38 |  2:51.11 |    176363    |   189198   
       13  | 42:02.49 |  4:31.64 |    189199    |   209587   
       14  | 46:34.38 |  5:59.00 |    209588    |   236512   


Range status and errors

Selected range

     Filename F:\EAC\Christopher Young - Drag me to Hell.wav

     Peak level 99.9 %
     Range quality 100.0 %
     Copy CRC B43F425C
     Copy OK

No errors occurred

End of status report


p.s.
It would be nice to have a special subsection for scary music. :oops:


Top
 Profile  
PostPosted: Sat Sep 12, 2009 11:44 am  Post subject: Re: Christopher Young (2009) Drag me to Hell (OST)
User avatar
Offline

The Ancient One
Joined: Sat Sep 20, 2003 9:40 pm
Posts: 2523
Location: In a dark room...
SpaceMonkey wrote:
p.s. It would be nice to have a special subsection for scary music. :oops:


There is, one thread above this one! :o

_________________
Image

Last Release: The Food of the Gods (1976)
NZB: download/file.php?id=436

Coming Soon: Cat's Eye, The Uncanny, Food of the Gods 2, The Devil's Men, Studio 666.


Top
 Profile  
PostPosted: Sat Sep 12, 2009 2:37 pm  Post subject: Re: Christopher Young (2009) Drag me to Hell (OST)
Request Territory
User avatar
Offline

Request Territory
Joined: Sat Sep 12, 2009 7:55 am
Posts: 2
Location: The Soundtrack Zone
MCMLXXXVIII wrote:
There is, one thread above this one! :o

Yes I've noticed that sticky, but I prefer not to post in there because it's a bit messy. I was hoping for a real section for scary music rips, in which horror soundtracks can be posted properly.

:drunk:


Top
 Profile  
Display posts from previous:  Sort by  

All times are UTC [ DST ]

Post new topic Reply to topic  [ 3 posts ] 


Who is online

Users browsing this forum: No registered users and 4 guests


You cannot post new topics in this forum
You cannot reply to topics in this forum
You cannot edit your posts in this forum
You cannot delete your posts in this forum
You cannot post attachments in this forum

Search for:
Jump to:  
cron
Frontpage / Forums / Scifi


What's blood for, if not for shedding?