Why not register?


Post new topic Reply to topic  [ 4 posts ] 

All times are UTC [ DST ]

Author Message
PostPosted: Tue Jan 13, 2009 9:50 pm  Post subject: The Silencers (1996) (Sci-Fi/Action)
User avatar
Offline

The Devil, Probably
Joined: Fri Oct 26, 2007 3:40 pm
Posts: 2250
Location: Inside my body.
Image

Image

Dragan Antulov on IMDb wrote:
U.S. Senator is assassinated by Men in Black, mysterious organization which surpresses all knowledge about UFOs. Agent Rafferty from U.S. Secret Service will confront them and discover the sinister truth. The only person that can help him comes from another world.


Starring:
Jack Scalia
Dennis Christopher

Image Image
Image Image
Image Image

My offer:
A 2CD DVDrip with 4:3 AR, English language BUT Swedish hardcoded(!) subtitles.
There is another version out there which is dead. So there is no alternative. :(

_________________
Keep downloaded files shared as long as possible! You wouldn't be able to download without people sharing the stuff.

Image Image Image Image Image Image
Image

Next release will be: La Cité Des Entfants Perdu (1995) + Making Of (Status: working on the subtitles)
Last release was: Svengali (1931)


Top
 Profile  
PostPosted: Tue Jan 13, 2009 10:36 pm  Post subject: Re: The Silencers (1996) (Sci-Fi/Action)
User avatar
Offline

Master Of The Dead Donkey
Joined: Mon Jun 19, 2006 4:01 pm
Posts: 708
Maybe the audio of the 2CD release + the video of this 1CD french rip posted @ a.b.movies.divx.french. I'm pretty sure it's french dubbed, but the video is probably clean. I'll post specs/screenshots later.


Top
 Profile  
PostPosted: Wed Jan 14, 2009 4:11 am  Post subject: Re: The Silencers (1996) (Sci-Fi/Action)
User avatar
Offline

Master Of The Dead Donkey
Joined: Mon Jun 19, 2006 4:01 pm
Posts: 708
Dubbed, bad cropping, but no hardsubs:

Code:
General
Complete name                    : silencers.divx.avi
Format                           : AVI
Format/Info                      : Audio Video Interleave
File size                        : 699 MiB
Duration                         : 1h 41mn
Overall bit rate                 : 967 Kbps

Video
Format                           : MPEG-4 Visual
Format settings, BVOP            : Yes
Format settings, QPel            : No
Format settings, GMC             : No warppoints
Format settings, Matrix          : Default
Codec ID                         : DX50
Codec ID/Hint                    : DivX 5
Duration                         : 1h 41mn
Bit rate                         : 877 Kbps
Width                            : 656 pixels
Height                           : 480 pixels
Display aspect ratio             : 4/3
Frame rate                       : 25.000 fps
Resolution                       : 24 bits
Colorimetry                      : 4:2:0
Scan type                        : Progressive
Bits/(Pixel*Frame)               : 0.111
Stream size                      : 634 MiB (91%)
Title                            : Video
Writing library                  : DivX 6.8.0 Converter 6.6

Audio
Format                           : MPEG Audio
Format version                   : Version 1
Format profile                   : Layer 3
Codec ID                         : 55
Codec ID/Hint                    : MP3
Duration                         : 1h 41mn
Bit rate mode                    : Constant
Bit rate                         : 80.0 Kbps
Channel(s)                       : 2 channels
Sampling rate                    : 48.0 KHz
Resolution                       : 16 bits
Stream size                      : 57.8 MiB (8%)
Alignment                        : Split accross interleaves
Interleave, duration             : 40 ms (1.00 video frame)
Interleave, preload duration     : 500 ms
Title                            : Audio


ImageImageImageImage
ImageImageImageImage
ImageImageImageImage

PM me if you want to use the video of this release. :beerchug:


Top
 Profile  
PostPosted: Sun Jan 18, 2009 11:56 am  Post subject: Re: The Silencers (1996) (Sci-Fi/Action)
User avatar
Offline

The Devil, Probably
Joined: Fri Oct 26, 2007 3:40 pm
Posts: 2250
Location: Inside my body.
Job completed. Movie released here: viewtopic.php?f=33&t=19406. Enjoy!

_________________
Keep downloaded files shared as long as possible! You wouldn't be able to download without people sharing the stuff.

Image Image Image Image Image Image
Image

Next release will be: La Cité Des Entfants Perdu (1995) + Making Of (Status: working on the subtitles)
Last release was: Svengali (1931)


Top
 Profile  
Display posts from previous:  Sort by  

All times are UTC [ DST ]

Post new topic Reply to topic  [ 4 posts ] 


Who is online

Users browsing this forum: No registered users and 2 guests


You cannot post new topics in this forum
You cannot reply to topics in this forum
You cannot edit your posts in this forum
You cannot delete your posts in this forum
You cannot post attachments in this forum

Search for:
Jump to:  
cron
Frontpage / Forums / Scifi


What's blood for, if not for shedding?