Why not register?


Post new topic Reply to topic  [ 1 post ] 

All times are UTC [ DST ]

Author Message
PostPosted: Sun Sep 21, 2003 8:56 am  Post subject: The Ring (KVCD)
Request Territory
Offline

Request Territory
Joined: Sun Sep 21, 2003 8:52 am
Posts: 1
The Ring

Image

Movie Info
http://imdb.com/title/tt0298130/

Extras
Menu & Chapter selection screens with music

Video
KVCD : x3 + MAF (Motion adaptive filtering) + MPEG1
CQ : 62
Res : 544x576
Run Time : 115 min

Audio
128Kbps @ 44.1khz
Dolby 2
English

Edk Links

ed2k: The_Ring_kvcd_RM_Vidicide.bin  [806.32 Mb] [Stats]

ed2k: The_Ring_kvcd_RM_Vidicide.cue  [367 Bytes] [Stats]

Cue Contents

FILE "The_Ring_kvcd_RM_Vidicide.BIN" BINARY
TRACK 01 MODE2/2352
INDEX 01 00:00:00
TRACK 02 MODE2/2352
INDEX 00 00:04:00
INDEX 01 00:06:00
TRACK 03 MODE2/2352
INDEX 00 00:50:42
INDEX 01 00:52:42
TRACK 04 MODE2/2352
INDEX 00 78:18:08
INDEX 01 78:20:08
TRACK 05 MODE2/2352
INDEX 00 79:04:41
INDEX 01 79:06:41

Server
Adanet


We bring the best out of KVCD.....

[ Add all 2 links to your ed2k client ]


Top
 Profile  
Display posts from previous:  Sort by  

All times are UTC [ DST ]

Post new topic Reply to topic  [ 1 post ] 


Who is online

Users browsing this forum: No registered users and 1 guest


Moderator: Movie Mods

You cannot post new topics in this forum
You cannot reply to topics in this forum
You cannot edit your posts in this forum
You cannot delete your posts in this forum
You cannot post attachments in this forum

Search for:
Jump to:  
Frontpage / Forums / Scifi


What's blood for, if not for shedding?