Why not register?


Post new topic Reply to topic  [ 1 post ] 

All times are UTC [ DST ]

Author Message
PostPosted: Tue Apr 17, 2012 12:22 am  Post subject: ATM (HDRiP)(2012)
Request Territory
Offline

Request Territory
Joined: Tue Oct 11, 2011 11:38 pm
Posts: 13
Image

IMDB Link:
imdb.com/title/tt1603257/

Description:
On a late night visit to an ATM, three co-workers end up in a desperate fight for their lives when they become trapped by an unknown man.

MediaInfo:
General
Complete name : ATM.2012.HDRiP.AC3-5.1.XviD-SiC.avi
Format : AVI
Format/Info : Audio Video Interleave
File] size : 1.37 GiB
Duration : 1h 30mn
Overall bit rate : 2 167 Kbps

Video
ID : 0
Format : MPEG-4 Visual
Format profile : Advanced Simple@L5
Format settings, BVOP : 2
Format settings, QPel : No
Format settings, GMC : No warppoints
Format settings, Matrix : Default (H.263)
Muxing mode : Packed bitstream
Codec ID : XVID
Codec ID/Hint : XviD
Duration : 1h 30mn
Bit rate : 1 775 Kbps
Width : 720 pixels
Height : 400 pixels
Display aspect ratio : 16:9
Frame rate : 23.976 fps
Color space : YUV
Chroma subsampling : 4:2:0
Bit depth : 8 bits
Scan type : Progressive
Compression mode : Lossy
Bits/(Pixel*Frame) : 0.257
Stream size : 1.12 GiB (82%)
Writing library : XviD 1.1.2 (UTC 2006-11-01)

Audio
ID : 1
Format : AC-3
Format/Info : Audio Coding 3
Mode extension : CM (complete main)
Codec ID : 2000
Duration : 1h 30mn
Bit rate mode : Constant
Bit rate : 384 Kbps
Channel(s) : 6 channels
Channel positions : Front: L C R, Side: L R, LFE
Sampling rate : 48.0 KHz
Bit depth : 16 bits
Compression mode : Lossy
Stream size : 248 MiB (18%)
Alignment : Aligned on interleaves
Interleave, duration : 64 ms (1.53 video frames)
Interleave, preload duration : 192 ms
Title : atm
Screenshots:
Image
Image
Image

Code:
http://rapidgator.net/file/4526687/ATM.2012.HDRiP.part1.rar.html
http://rapidgator.net/file/4535309/ATM.2012.HDRiP.part2.rar.html


Top
 Profile  
Display posts from previous:  Sort by  

All times are UTC [ DST ]

Post new topic Reply to topic  [ 1 post ] 


Who is online

Users browsing this forum: No registered users and 1 guest


Moderator: Movie Mods

You cannot post new topics in this forum
You cannot reply to topics in this forum
You cannot edit your posts in this forum
You cannot delete your posts in this forum
You cannot post attachments in this forum

Search for:
Jump to:  
cron
Frontpage / Forums / Scifi


What's blood for, if not for shedding?