Why not register?


Post new topic Reply to topic  [ 1 post ] 

All times are UTC [ DST ]

Author Message
PostPosted: Sun Dec 05, 2010 9:45 pm  Post subject: Secret Sunday AKA 9 Wats (2010)
User avatar
Offline

The Ancient One
Joined: Thu Feb 13, 2003 6:07 pm
Posts: 4463
Location: The Cellar
Image
http://thaifilmjournal.blogspot.com/201 ... unday.html

Quote:
According to his mother request, Nat, a young architect, unwillingly takes this journey to visit 9 different temples in order to clean up his bad karma. He is accompanied by Poon his beauty columnist girlfriend, and Sujitto, a young novice monk.

All three characters have different purposes for taking this trip. But later they discover that they were put together on this trip for an unforeseeable reason. The karma of one person can effect the karma of others also. Horrifying acts done in their previous lives reveal themselves as the journey goes by. The more they try to clean up Nat’s bad karmas by making a merit, the closer they get to “THEM” The journey is going to change their faith forever. How is Nat going to clean up his own mess? Would Nat be forgiven? How can an act of making the merit overcome the relentless vengeance?



Secret Sunday (9 Wats) 2010 DVDRip Xvid LKRG

Video
ID : 0
Format : MPEG-4 Visual
Format profile : Advanced Simple@L5
Format settings, BVOP : Yes
Format settings, QPel : No
Format settings, GMC : No warppoints
Format settings, Matrix : Default (H.263)
Muxing mode : Packed bitstream
Codec ID : XVID
Codec ID/Hint : XviD
Duration : 1h 44mn
Bit rate : 1 018 Kbps
Width : 720 pixels
Height : 304 pixels
Display aspect ratio : 2.35:1
Frame rate : 25.000 fps
Resolution : 8 bits
Colorimetry : 4:2:0
Scan type : Progressive
Bits/(Pixel*Frame) : 0.186
Stream size : 761 MiB (69%)
Writing library : XviD 1.2.1 (UTC 2008-12-04)

Audio
ID : 1
Format : AC-3
Format/Info : Audio Coding 3
Codec ID : 2000
Duration : 1h 44mn
Bit rate mode : Constant
Bit rate : 448 Kbps
Channel(s) : 6 channels
Channel positions : Front: L C R, Surround: L R, LFE
Sampling rate : 48.0 KHz
Stream size : 335 MiB (30%)
Alignment : Split accross interleaves
Interleave, duration : 40 ms (1.00 video frame)
Interleave, preload duration : 500 ms

Hardcoded English Subs

Audio Thai


screens:
Image
Image

trailer:


torrent:
http://isohunt.com/torrent_details/2234 ... ay+(9+Wats)+2010+DVDRip+Xvid+LKRG


:beerchug:

_________________
Image
STR - Dead but not forgotten!


Top
 Profile  
Display posts from previous:  Sort by  

All times are UTC [ DST ]

Post new topic Reply to topic  [ 1 post ] 


Who is online

Users browsing this forum: No registered users and 1 guest


Moderator: Movie Mods

You cannot post new topics in this forum
You cannot reply to topics in this forum
You cannot edit your posts in this forum
You cannot delete your posts in this forum
You cannot post attachments in this forum

Search for:
Jump to:  
Frontpage / Forums / Scifi


What's blood for, if not for shedding?