Why not register?


Post new topic Reply to topic  [ 2 posts ] 

All times are UTC [ DST ]

Author Message
PostPosted: Fri Mar 18, 2011 1:29 am  Post subject: Interplanetary (2008)
User avatar
Offline

The Ancient One
Joined: Thu Feb 13, 2003 6:07 pm
Posts: 4463
Location: The Cellar
Image
http://www.imdb.com/title/tt1355575/

Quote:
Genre : Horror / Sc-Fi

Tagline : Monsters and Mayhem, 40 million miles from Earth.

Plot : Nine men and women, employees of Interplanetary Corporation, live and work on Mars. Their days aren't particularly interesting, much less exciting, until they are assaulted by a murderous band of strangers and a seemingly unstoppable alien creature. Do these attacks have anything to do with the Martian fossil recently uncovered by one of the employees? Will the rapidly increasing body count adversely affect Interplanetary's stock price? And can anyone survive long enough to fill out the inevitable paperwork?


Code:
General
Complete name : F:\Interplanetary 2008 DVDRip Xvid AC3-THC\Interplanetary 2008 DVDRip Xvid AC3-THC.avi
Format : AVI
Format/Info : Audio Video Interleave
File size : 1.40 GiB
Duration : 1h 22mn
Overall bit rate : 2 414 Kbps

Video
ID : 0
Format : MPEG-4 Visual
Format profile : Advanced Simple@L5
Format settings, BVOP : 2
Format settings, QPel : Yes
Format settings, GMC : No warppoints
Format settings, Matrix : Default (MPEG)
Codec ID : XVID
Codec ID/Hint : XviD
Duration : 1h 22mn
Bit rate : 2 150 Kbps
Width : 720 pixels
Height : 384 pixels
Display aspect ratio : 1.875
Frame rate : 23.976 fps
Color space : YUV
Chroma subsampling : 4:2:0
Bit depth : 8 bits
Scan type : Progressive
Compression mode : Lossy
Bits/(Pixel*Frame) : 0.324
Stream size : 1.25 GiB (89%)
Writing library : XviD 62

Audio
ID : 1
Format : AC-3
Format/Info : Audio Coding 3
Mode extension : CM (complete main)
Codec ID : 2000
Duration : 1h 22mn
Bit rate mode : Constant
Bit rate : 256 Kbps
Channel(s) : 2 channels
Channel positions : Front: L R
Sampling rate : 48.0 KHz
Bit depth : 16 bits
Compression mode : Lossy
Stream size : 152 MiB (11%)
Alignment : Aligned on interleaves
Interleave, duration : 64 ms (1.53 video frames)
Interleave, preload duration : 192 ms
Title : VTS_01_1 T80 2_0ch 256Kbps DELAY 0ms english



Image
Image
Image

trailer:


torrent:
http://www.ahashare.com/torrents-details.php?id=141954

_________________
Image
STR - Dead but not forgotten!


Top
 Profile  
PostPosted: Sun Oct 23, 2011 3:13 pm  Post subject: Re: Interplanetary (2008)
Offline

Buried In The Backyard
Joined: Thu Oct 20, 2011 10:23 pm
Posts: 17
I heard Electioneering by Radiohead. Good enough for me!

_________________
"if I must die I will encounter darkness as a bride and hug it in mine arms."


Top
 Profile  
Display posts from previous:  Sort by  

All times are UTC [ DST ]

Post new topic Reply to topic  [ 2 posts ] 


Who is online

Users browsing this forum: No registered users and 1 guest


Moderator: Movie Mods

You cannot post new topics in this forum
You cannot reply to topics in this forum
You cannot edit your posts in this forum
You cannot delete your posts in this forum
You cannot post attachments in this forum

Search for:
Jump to:  
cron
Frontpage / Forums / Scifi


What's blood for, if not for shedding?