Why not register?


Post new topic Reply to topic  [ 1 post ] 

All times are UTC [ DST ]

Author Message
PostPosted: Mon Mar 21, 2011 9:55 pm  Post subject: Killjoy 3 (2010)
User avatar
Offline

The Ancient One
Joined: Thu Feb 13, 2003 6:07 pm
Posts: 4463
Location: The Cellar
Image
http://www.imdb.com/title/tt1603314/

Quote:
The demon clown Killjoy is resurrected once again, but this time he is not given the name of his victim and is trapped in his realm. Using a magic mirror he lures four unsuspecting college students into his realm where he can have his macabre fun! A mysterious man returns and we finally discover who Killjoy's true target is!.


Genre:Horror
Language:English
Source:DVD

Format : MPEG-4
Format profile : Base Media
Codec ID : isom
File size : 811 MiB
Duration : 1h 16mn
Overall bit rate : 1 489 Kbps
Movie name : Killjoy.3.2010.DvDRip.x264.Feel-Free

Video
Format settings, CABAC : Yes
Format settings, ReFrames : 4 frames
Codec ID : avc1
Codec ID/Info : Advanced Video Coding
Duration : 1h 16mn
Bit rate mode : Variable
Bit rate : 1 324 Kbps
Width : 720 pixels
Height : 384 pixels
Display aspect ratio : 1.875
Frame rate mode : Constant
Frame rate : 23.976 fps
Color space : YUV
Chroma subsampling : 4:2:0
Bit depth : 8 bits
Scan type : Progressive
Bits/(Pixel*Frame) : 0.200
Stream size : 718 MiB (89%)
Writing library : x264

Audio
ID : 2
Format : AAC
Format/Info : Advanced Audio Codec
Format version : Version 4
Format profile : LC
Codec ID : 40
Duration : 1h 16mn
Bit rate mode : Variable
Bit rate : 165 Kbps
Channel(s) : 2 channels
Channel positions : Front: L R
Sampling rate : 48.0 KHz
Stream size : 90.0 MiB (11%)


screens:
Image
Image
Image

trailer:


torrent:
http://www.ahashare.com/torrents-details.php?id=142936
http://extratorrent.com/torrent/2395613 ... -Free.html

_________________
Image
STR - Dead but not forgotten!


Top
 Profile  
Display posts from previous:  Sort by  

All times are UTC [ DST ]

Post new topic Reply to topic  [ 1 post ] 


Who is online

Users browsing this forum: No registered users and 1 guest


Moderator: Movie Mods

You cannot post new topics in this forum
You cannot reply to topics in this forum
You cannot edit your posts in this forum
You cannot delete your posts in this forum
You cannot post attachments in this forum

Search for:
Jump to:  
Frontpage / Forums / Scifi


What's blood for, if not for shedding?