Why not register?


Post new topic Reply to topic  [ 1 post ] 

All times are UTC [ DST ]

Author Message
PostPosted: Wed Mar 23, 2011 12:09 pm  Post subject: The Sitter (2007)
User avatar
Offline

The Ancient One
Joined: Thu Feb 13, 2003 6:07 pm
Posts: 4463
Location: The Cellar
Image

Quote:
A psycho thriller that slashes away at the fa ade of a perfect family The Sitter is anything but your typical lifetime movie. When prosperous California Couple Carter an Meghan search for the perfect nanny they believe they've found their answer in sweet Abby Reed.


:@@@:                                                        
+@++@#: ##
@ + @ @
@ + : '
` @ ,@@` '
: , @;@@@
: # @@.@@@' : #.
+ @ @@@.`@@@ @ #@@
+ + .@@@@. @@@@ @@@
:@@@@# @@@. .@@.
+ @@@: #,++ , : #@@
@ .++@@@:@ + .` ,@ .@` ;@ @` @+ @@@
#@@@@@@@;# @ : .@@@# '@@@' .@@@' @@@ @@@# @ @@@
@@@@@@@@@; @ ` @@ .@@@ .#@@ @@@@ @@ :@@# #'@@'@ @@@@ #. @@@
+@@@+;:@@@: . : @@ @@ @@@ @@@ @@ @@ @@+ @@` +@@ @@@
@@ ':.@@@: '# @@ , @@@ @@@ @@ ; @@: @@ @@ @@@
@ @@@@@@:.# # @@ + @@@ @@@ @@ : @@: @@ @@ @@+
@ @@@@@@@. @@ @@@ @@@ @@ @@: @@ @@ @@+
@ @. @@@. : @@ + @@@ @@@ @@ @ @@: @@ @@ @@@
`` @@@. :`# @@ + @@@ @@@ @@ ; @@: @@ @@ @@@
`@,#` @#@' @@`; @@ : @@@ @@@ @@ . @@: @@ @@ @@@
.@ ,@ , @@ +@, @@@ @@@ @@ ;@` @@: @@ @@ @@@
#@@@, ' @ @@ `; @@@ @@@ @@ .: @@: @@ @@ @@@
`@@@@@@@@@@@@+: @@ ` @@@ @@@ @@ @@; @@` @@ @@@
+@@@@@@@@@@@@` @ @@@ . @@@: @@@ @@@ ` `@@@ @@@+'+@@@` @@
+@` +@@@# ' @@@@#@ #@@@@@@@` @@@@## @@# +@@@ ,@@@@;
@ #. @@@; `@@@ @@ .@@@ .@@# # #@ ;@
, `@@ ,
.@
:@@. @
@''@@: @+
` @@,+
@. @@
+


+@@@@@@,
@@. .@@
.# ` @ . .
`' @ @ @@. .#@
@ '@@ @';@@@` ' @ @
`` ,#:@@@@: #@@ @ @ : .# #`
+ @ ,@@@ @@; + +@ @ ' @ . @
@ @@@ '@@@ @ +@@@@ '+ @ @.:@
+ @@@ @@@@@#@ #@+ @,@ `@@@
` @@@ @+ . @@@ @@+
@ `@;@@@# ` +@@ @@: .
.+'` @@@ @ ;@` @` +@@ @@: .@ @@ .@
@` @@@ # @@@+ @@@` +@@ @@: `#@@@ @@@@.@@@@
: @@@@@, @`@@@ @;@@@ +@@ @@: @@.`@@@ . @@@.@@@
@@@'@ @@@ . @@. +@@ @@: @@. @@ @@@ @
`@@@@@@'@ @@@,` @@. +@@ @@: @@. ` @@@ .,
,@@@@@@@ @ @@+# @@. +@@ @@: @@. # @@@ '
@@@@@@@@ @ `'+. @@. +@@ @@: @@. @@@ @,
+@` @@@ @@@, @@. +@@ @@: @@.; @@@
@, @@@;@ @@@ @@. +@@ @@: @@.@ @@@
,` @@@ + @@# @@. +@@ @@: @@.+ @@@
# .. @@. # @@@ @@ +@@ @@: @@.@@' @@@
+@ :, @@@ @@ +@@ @@: @@.`' @@@
@@@@@@ @ @@@ @@ +@@ @@+ @@. ` @@@
@@@@@@@@`,@@@ . @@, @@@ @@@ @@@ : .@@@@
@@@@@@@# @@@@@@. @@@# @@@` ,@@@ @@@@@@ .@@@`
@; +@ @@@# ,@@ @ `@ `@@@ ,@.
. ` , .




▐█▀▄▄▄▄▄▄▄▄▄▄▄▄▄▄▄▄▄▄▄▄▄▄▄▄▄▄▄▄▄▄▄▄▄▄▄▄▄▄▄▄▄▄▄▄▄▄▄▄▄▄▄▄▄▄▄▄▄▄▄▄▄▄▄▄▄▄▄▄▄▀█▌
█▌ ▐█
█▓ While the Children Sleep (The Sitter) ▓█

Encoded By .......: BigPerm1828
Runtime ..........: 1h 28mn
File Size ........: 1.03 GiB
Resolution .......: 704x396
IMDb URL .........: http://www.imdb.com/title/tt0961088/
Language .........: English

█▓░ ░▓█
██▓▒░▄▄▄▄▄▄▄▄▄▄▄▄▄▄▄▄▄▄▄▄▄▄▄ Audio/Video ▄▄▄▄▄▄▄▄▄▄▄▄▄▄▄▄▄▄▄▄▄▄▄▄▄▄▄▄▄░▒▓██
▐█▀▄▄▄▄▄▄▄▄▄▄▄▄▄▄▄▄▄▄▄▄▄▄▄▄▄▄▄▄▄▄▄▄▄▄▄▄▄▄▄▄▄▄▄▄▄▄▄▄▄▄▄▄▄▄▄▄▄▄▄▄▄▄▄▄▄▄▄▄▄▀█▌
█▌ ▐█
█▓ ▓█
General
Complete name : While the Children Sleep(The Sitter) 2007 DVDRip Xvid BigPerm LKRGTS_LKRG.avi
Format : AVI
Format/Info : Audio Video Interleave
Format profile : OpenDML
File size : 1.03 GiB
Duration : 1h 28mn
Overall bit rate : 1 660 Kbps

Video
ID : 0
Format : MPEG-4 Visual
Format profile : Advanced Simple@L5
Format settings, BVOP : Yes
Format settings, QPel : No
Format settings, GMC : No warppoints
Format settings, Matrix : Default (H.263)
Codec ID : XVID
Codec ID/Hint : XviD
Duration : 1h 28mn
Bit rate : 62.3 Kbps
Width : 704 pixels
Height : 396 pixels
Display aspect ratio : 16:9
Frame rate : 29.970 fps
Color space : YUV
Chroma subsampling : 4:2:0
Bit depth : 8 bits
Scan type : Progressive
Compression mode : Lossy
Bits/(Pixel*Frame) : 0.007
Stream size : 39.4 MiB (4%)
Writing library : XviD 1.2.1 (UTC 2008-12-04)

Audio
ID : 1
Format : AC-3
Format/Info : Audio Coding 3
Codec ID : 2000
Duration : 1h 28mn
Bit rate mode : Constant
Bit rate : 192 Kbps
Channel(s) : 2 channels
Sampling rate : 48.0 KHz
Bit depth : 16 bits
Compression mode : Lossy
Stream size : 121 MiB (12%)
Alignment : Aligned on interleaves
Language : ENGLISH

█▓░ ░▓█
██▓▒░▄▄▄▄▄▄▄▄▄▄▄▄▄▄▄▄▄▄▄▄▄▄▄▄▄▄▄▄▄▄▄▄▄▄▄▄▄▄▄▄▄▄▄▄▄▄▄▄▄▄▄▄▄▄▄▄▄▄▄▄▄▄▄▄▄░▒▓██
▐█▀▄▄▄▄▄▄▄▄▄▄▄▄▄▄▄▄▄▄▄▄▄▄▄▄▄▄▄▄▄▄▄▄▄▄▄▄▄▄▄▄▄▄▄▄▄▄▄▄▄▄▄▄▄▄▄▄▄▄▄▄▄▄▄▄▄▄▄▄▄▀█▌
█▌ ▐█
█▓ ▓█
█▓░ ░▓█
██▓▒░▄▄▄▄▄▄▄▄▄▄▄▄▄▄▄▄▄▄▄▄▄▄▄ Notes ▄▄▄▄▄▄▄▄▄▄▄▄▄▄▄▄▄▄▄▄▄▄▄▄▄▄▄▄▄░▒▓██
▐█▀▄▄▄▄▄▄▄▄▄▄▄▄▄▄▄▄▄▄▄▄▄▄▄▄▄▄▄▄▄▄▄▄▄▄▄▄▄▄▄▄▄▄▄▄▄▄▄▄▄▄▄▄▄▄▄▄▄▄▄▄▄▄▄▄▄▄▄▄▄▀█▌
█▌ ▐█
█▓ Have Anything We can Use?
Contact us At

legendkillerrg@hushmail.com ▓█
█▓░ ░▓█
██▓▒░▄▄▄▄▄▄▄▄▄▄▄▄▄▄▄▄▄▄▄▄▄▄ Greetz/Thanks ▄▄▄▄▄▄▄▄▄▄▄▄▄▄▄▄▄▄▄▄▄▄▄▄▄▄▄▄░▒▓██

Greetz to all other respected RG's out there and to all The P2P World.

Let the Legend Killing Continue.


screens:
Image
Image
Image

torrent:
http://www.ahashare.com/torrents-details.php?id=143309

_________________
Image
STR - Dead but not forgotten!


Top
 Profile  
Display posts from previous:  Sort by  

All times are UTC [ DST ]

Post new topic Reply to topic  [ 1 post ] 


Who is online

Users browsing this forum: No registered users and 2 guests


Moderator: Movie Mods

You cannot post new topics in this forum
You cannot reply to topics in this forum
You cannot edit your posts in this forum
You cannot delete your posts in this forum
You cannot post attachments in this forum

Search for:
Jump to:  
cron
Frontpage / Forums / Scifi


What's blood for, if not for shedding?