Why not register?


Post new topic Reply to topic  [ 1 post ] 

All times are UTC [ DST ]

Author Message
PostPosted: Wed Mar 23, 2011 8:15 pm  Post subject: Earth Day (2009)
User avatar
Offline

The Ancient One
Joined: Thu Feb 13, 2003 6:07 pm
Posts: 4463
Location: The Cellar
Image
http://www.imdb.com/title/tt1468715/

Quote:
Tells the tale of a group of ex eco-crusaders who find themselves being systematically slaughtered as the one year anniversary of the tragic Earth Day death of their leader, Pixie, approaches.


General
Complete name : Earth.Day.2009.DVDRip.XviD-Filmikz.avi
Format : AVI
Format/Info : Audio Video Interleave
File size : 969 MiB
Duration : 1h 41mn
Overall bit rate : 1 340 Kbps
Writing application : Lavf51.12.1

Video
Format : xvid
Codec ID : xvid
Duration : 1h 41mn
Bit rate : 1 199 Kbps
Width : 720 pixels
Height : 480 pixels
Display aspect ratio : 3:2
Frame rate : 23.976 fps
Standard : NTSC
Bits/(Pixel*Frame) : 0.145
Stream size : 867 MiB (89%)

Audio
ID : 1
Format : MPEG Audio
Format version : Version 1
Format profile : Layer 3
Mode : Joint stereo
Format_Settings_ModeExtension : MS Stereo
Codec ID : 55
Codec ID/Hint : MP3
Duration : 1h 41mn
Bit rate mode : Constant
Bit rate : 128 Kbps
Channel(s) : 2 channels
Sampling rate : 48.0 KHz
Stream size : 92.6 MiB (10%)
Alignment : Aligned on interleaves
Interleave, duration : 24 ms (0.58 video frame)
Interleave, preload duration : 24 ms
Writing library : LAME3.97




torrent:
http://www.ahashare.com/torrents-details.php?id=143472
http://thepiratebay.org/torrent/6265917 ... iD-Filmikz

_________________
Image
STR - Dead but not forgotten!


Top
 Profile  
Display posts from previous:  Sort by  

All times are UTC [ DST ]

Post new topic Reply to topic  [ 1 post ] 


Who is online

Users browsing this forum: No registered users and 2 guests


Moderator: Movie Mods

You cannot post new topics in this forum
You cannot reply to topics in this forum
You cannot edit your posts in this forum
You cannot delete your posts in this forum
You cannot post attachments in this forum

Search for:
Jump to:  
cron
Frontpage / Forums / Scifi


What's blood for, if not for shedding?