Why not register?


Post new topic Reply to topic  [ 4 posts ] 

All times are UTC [ DST ]

Author Message
PostPosted: Sun Mar 27, 2011 4:13 am  Post subject: Spiderhole (2010)
User avatar
Offline

The Ancient One
Joined: Thu Feb 13, 2003 6:07 pm
Posts: 4463
Location: The Cellar
Image
http://www.imdb.com/title/tt1496884/

Quote:
They say squatting is dead - a term that takes on a sinister double meaning when four homeless art students decide to take up residence in an abandoned London House where a hidden terror lurks.


Format: AVI
Format/Info: Audio Video Interleave
File size: 950 MiB
Duration: 1h 21mn
Overall bit rate: 1 625 Kbps

Video
Format : MPEG-4 Visual
Format settings, BVOP : Yes
Format settings, QPel : No
Format settings, GMC : No warppoints
Format settings, Matrix : Default (H.263)
Muxing mode : Packed bitstream
Codec ID : DX50
Codec ID/Hint : DivX 5
Duration : 1h 21mn
Bit rate : 1 295 Kbps
Width : 720 pixels
Height : 324 pixels
Display aspect ratio : 2.222
Frame rate : 25.000 fps
Resolution : 8 bits
Colorimetry : 4:2:0
Scan type : Progressive
Bits/(Pixel*Frame) : 0.222
Stream size : 757 MiB (80%)
Title : Video
Writing library : DivX 3330

Audio
Format : MPEG Audio
Format version : Version 1
Format profile : Layer 3
Mode : Joint stereo
Format_Settings_ModeExtension : MS Stereo
Codec ID : 55
Codec ID/Hint : MP3
Duration : 1h 21mn
Bit rate mode : Constant
Bit rate : 320 Kbps
Channel(s) : 2 channels
Sampling rate : 44.1 KHz
Stream size : 187 MiB (20%)
Alignment : Split accross interleaves
Interleave, duration : 40 ms (1.00 video frame)
Interleave, preload duration : 500 ms



torrent:
http://extratorrent.com/torrent/2398371 ... lmikz.html

_________________
Image
STR - Dead but not forgotten!


Last edited by d0c on Sun Mar 27, 2011 9:09 pm, edited 1 time in total.

Top
 Profile  
PostPosted: Sun Mar 27, 2011 1:43 pm  Post subject: Re: Spiderhole (2010)
User avatar
Offline

The Devil, Probably
Joined: Fri Jan 06, 2006 1:58 pm
Posts: 1940
Location: Just Follow The Stench
:lol: Nice screens

_________________
Image
"SBiG: Bad Movie Download Central | Home of the ShitBusters" | White Wine FTW


Top
 Profile  
PostPosted: Sun Mar 27, 2011 3:28 pm  Post subject: Re: Spiderhole (2010)
User avatar
Offline

Buried In The Backyard
Joined: Mon May 24, 2004 3:52 pm
Posts: 29
indeed, looks like the video has great quality

_________________
Image


Top
 Profile  
PostPosted: Sun Mar 27, 2011 9:09 pm  Post subject: Re: Spiderhole (2010)
User avatar
Offline

The Ancient One
Joined: Thu Feb 13, 2003 6:07 pm
Posts: 4463
Location: The Cellar
there i fixed it...... :D

_________________
Image
STR - Dead but not forgotten!


Top
 Profile  
Display posts from previous:  Sort by  

All times are UTC [ DST ]

Post new topic Reply to topic  [ 4 posts ] 


Who is online

Users browsing this forum: No registered users and 2 guests


Moderator: Movie Mods

You cannot post new topics in this forum
You cannot reply to topics in this forum
You cannot edit your posts in this forum
You cannot delete your posts in this forum
You cannot post attachments in this forum

Search for:
Jump to:  
cron
Frontpage / Forums / Scifi


What's blood for, if not for shedding?