Why not register?


Post new topic Reply to topic  [ 3 posts ] 

All times are UTC [ DST ]

Author Message
PostPosted: Thu Sep 18, 2008 3:32 pm  Post subject: Hell's Trap (1990)
User avatar
Offline

Lunatic Of Gods Creation
Joined: Wed Oct 06, 2004 7:17 am
Posts: 955
Hell's.Trap.1990.DvdRip.Xvid.Video-Man

mexican freddy kruger
Image

Image


Code:
*******************************************************************************
                              -=@ Hell's Trap @=-
*******************************************************************************

-------------------------------------------------------------------------------
                              General Information
-------------------------------------------------------------------------------

General
Complete name                    : Hell's.Trap.1990.DvdRip.Xvid.Video-Man.avi

Format                           : AVI
Format/Info                      : Audio Video Interleave
File size                        : 700 MiB
Duration                         : 1h 16mn
Overall bit rate                 : 1 286 Kbps
Writing application              : VirtualDubMod 1.5.10.2 (build 2540/release)
Writing library                  : VirtualDubMod build 2540/release

Video
Format                           : MPEG-4 Visual
Format profile                   : Streaming Video@L1
Format settings, BVOP            : Yes
Format settings, QPel            : No
Format settings, GMC             : No warppoints
Format settings, Matrix          : Default
Muxing mode                      : Packed bitstream
Codec ID                         : XVID
Codec ID/Hint                    : XviD
Duration                         : 1h 16mn
Bit rate                         : 1 213 Kbps
Width                            : 512 pixels
Height                           : 384 pixels
Display aspect ratio             : 4/3
Frame rate                       : 23.976 fps
Resolution                       : 24 bits
Colorimetry                      : 4:2:0
Scan type                        : Progressive
Bits/(Pixel*Frame)               : 0.257
Stream size                      : 660 MiB (94%)
Writing library                  : XviD 1.1.2 (UTC 2006-11-01)

Audio
Format                           : MPEG Audio spanish
Format version                   : Version 2
Format profile                   : Layer 3
Codec ID                         : 55
Codec ID/Hint                    : MP3
Duration                         : 1h 16mn
Bit rate mode                    : Constant
Bit rate                         : 64.0 Kbps
Channel(s)                       : 2 channels
Sampling rate                    : 22.05 KHz
Resolution                       : 16 bits
Stream size                      : 34.8 MiB (5%)
Alignment                        : Split accross interleaves
Interleave, duration             : 42 ms (1.00 video frame)
Interleave, preload duration     : 500 ms



Video Format.........: xvid
Source...............: DVD 4x3
Original Format......: NTSC
Genre................: horror
IMDb Rating..........: 6.2
Movie Information....: http://www.imdb.com/title/tt0098505/

-------------------------------------------------------------------------------
                                 Release Notes
-------------------------------------------------------------------------------
subs........ english

2pass encode

Plot:A group of hunters are searching for a bear... but what they find is a
maniacal vietnam vet defending his land by planting deadly booby traps for the
group. The hunters become the hunted.

Cast
 (Credited cast)
    Pedro Fernßndez    ...     Nacho
    Charly Valentino       
    Edith Gonzßlez    ...     Alejandra
    To±o Mauri    ...     Mauricio
    Marisol Santacruz    ...     Carlota
    Adriana Vega    ...     Viviana
    Alfredo GutiΘrrez    ...     Don Jeremias
    Alberto Mejia Baron    ...     Jesse
    Armando Galvan    ...     Javier



-------------------------------------------------------------------------------
Generated with Cool NFO Creator - http://fly.to/coolbeans
-------------------------------------------------------------------------------

_________________
Image


Top
 Profile  
PostPosted: Thu Sep 18, 2008 5:50 pm  Post subject: Re: Hell's Trap (1990)
User avatar
Offline

Demon Of The Abyss
Joined: Tue Jun 14, 2005 8:01 pm
Posts: 1130
:beerchug:

_________________
Got milk?


Top
 Profile  
PostPosted: Thu Sep 18, 2008 8:16 pm  Post subject: Re: Hell's Trap (1990)
Offline

Will Tear Your Soul Apart
Joined: Sun Aug 13, 2006 7:37 pm
Posts: 541
Location: California
rathe kreugeresque


Top
 Profile  
Display posts from previous:  Sort by  

All times are UTC [ DST ]

Post new topic Reply to topic  [ 3 posts ] 


Who is online

Users browsing this forum: No registered users and 1 guest


Moderator: Movie Mods

You cannot post new topics in this forum
You cannot reply to topics in this forum
You cannot edit your posts in this forum
You cannot delete your posts in this forum
You cannot post attachments in this forum

Search for:
Jump to:  
cron
Frontpage / Forums / Scifi


What's blood for, if not for shedding?