Why not register?


Post new topic Reply to topic  [ 5 posts ] 

All times are UTC [ DST ]

Author Message
PostPosted: Sat Nov 08, 2003 12:41 pm  Post subject: Dunwich Horror, The (1970)
User avatar
Offline

Dead But Dreaming
Joined: Tue Apr 29, 2003 11:25 am
Posts: 269
The Dunwich Horror (1970).avi


http://us.imdb.com/title/tt0065669/
697 MB (or 714,054 KB or 731,191,296 bytes)
XviD
01:27:39 (126,097 fr)
576x304 (1.89:1) [=36:19]
980 kb/s
23.976
0x0055(MP3) ID'd as MPEG-1 Layer 3
124 kb/s (62/ch, stereo) VBR LAME3.92
48000 Hz

Another movie base on HPL's story :)


Top
 Profile  
PostPosted: Sun Dec 14, 2003 5:28 am  Post subject:
Request Territory
Offline

Request Territory
Joined: Thu Jun 05, 2003 7:22 pm
Posts: 4
are there any sources for this movie?


Top
 Profile  
PostPosted: Sun Dec 14, 2003 5:41 am  Post subject:
User avatar
Offline

Mod of the Living Dead
Joined: Fri Nov 22, 2002 4:30 pm
Posts: 3346
Location: Where dead angels lie
@Apocalipstick, do you need a hand with spreading?

_________________
"When I was a kid we fuckin' respected our parents, we didn't fuckin' eat them!"


Top
 Profile  
PostPosted: Thu Feb 17, 2011 12:58 am  Post subject: Re: Dunwich Horror, The (1970)
User avatar
Offline

Skull Full Of Maggots
Joined: Thu Aug 21, 2008 9:37 pm
Posts: 50
The Dunwich Horror (1970)

Image


http://www.imdb.com/title/tt0065669/

Directed by
Daniel Haller

Writing credits
H.P. Lovecraft
Curtis Hanson
Henry Rosenbaum
Ronald Silkosky

Cast
Sandra Dee ... Nancy Wagner
Dean Stockwell ... Wilbur Whateley
Ed Begley ... Dr. Henry Armitage
Lloyd Bochner ... Dr. Cory
Sam Jaffe ... Old Whateley
Joanne Moore Jordan ... Lavinia Whateley (as Joanna Moore Jordan)
Donna Baccala ... Elizabeth Hamilton
Talia Shire ... Nurse Cora (as Talia Coppola)
Michael Fox ... Dr. Raskin (as Mike Fox)
Jason Wingreen ... Sheriff Harrison


Image
Image
Image

Image
Image
Image

Image
Image
Image







Quote:
Nancy Walker and Elizabeth Hamilton, two students who attend Miskatonic University and work in the school library, are putting away the Necronomicon , a rare book on the occult, after a lecture on the supernatural given by visiting professor Dr. Henry Armitage. Dr. Armitage discovers Wilbur Whateley memorizing ritual passages from the Necronomicon and is at first angry, but learns that Wilbur comes from nearby Dunwich, a village having a history of evil occurrences, and that Wilbur is the great-grandson of Oliver Whateley, who was hanged by the villagers as a demon. Nancy, finding herself attracted to Wilbur, offers to drive him home when he misses his bus. Later, in the old mansion where Wilbur lives with his grandfather, Wilbur drugs Nancy and sabotages her car, thus forcing her to stay for the night. (He plans to sacrifice her in a fertility rite in the hopes of gaining for himself contact with the spiritual world.) Nancy accepts his invitation to spend the weekend there, but her absence alarms both Elizabeth and Dr. Armitage, who learn that Wilbur's mother has been living in an insane asylum since giving birth to twins--Wilbur and a boy who has never been seen. Wilbur steals the Necronomicon from the library, kills a guard, and takes Nancy to the "Devil's Hopyard," a rocky hillside, for the ritual. Meanwhile, Elizabeth and Dr. Armitage arrive at the Whateley house; Elizabeth opens a locked door and is immediately devoured by an invisible creature, the Dunwich Horror (Wilbur's twin). The Horror escapes and ravages the countryside, intending to kill Wilbur. Eventually, Dr. Armitage confronts Wilbur and the monster at the Devil's Hopyard, and there Armitage utters a curse which sends both Wilbur and the Dunwich Horror up in flames.



-------------------------------------------------------------------------------------------------------------------------------------------------

I'm the only source.
ed2k: The%20Dunwich%20Horror.1970.DVDRip.AC3.x264-Duat.mkv  [1.53 Gb] [Stats]

-------------------------------------------------------------------------------------------------------------------------------------------------


Code:
General
Unique ID                        : 253520591158035160763786813056812573092 (0xBEBA4A30878D374F981C006B71FFE1A4)
Complete name                    : D:\eMule\The Dunwich Horror.1970.DVDRip.AC3.x264-Duat.mkv
Format                           : Matroska
File size                        : 1.53 GiB
Duration                         : 1h 27mn
Overall bit rate                 : 2 493 Kbps
Movie name                       : The Dunwich Horror (1970) Duat
Encoded date                     : UTC 2011-01-14 22:24:19
Writing application              : mkvmerge v3.3.0 ('Language') built on Mar 24 2010 14:59:24
Writing library                  : libebml v0.8.0 + libmatroska v0.9.0

Video
ID                               : 1
Format                           : AVC
Format/Info                      : Advanced Video Codec
Format profile                   : High@L3.0
Format settings, CABAC           : Yes
Format settings, ReFrames        : 4 frames
Codec ID                         : V_MPEG4/ISO/AVC
Duration                         : 1h 27mn
Bit rate                         : 2 300 Kbps
Width                            : 718 pixels
Height                           : 462 pixels
Display aspect ratio             : 16:9
Original display aspect ratio    : 16:9
Frame rate                       : 23.976 fps
Color space                      : YUV
Chroma subsampling               : 4:2:0
Bit depth                        : 8 bits
Scan type                        : Progressive
Bits/(Pixel*Frame)               : 0.289
Stream size                      : 1.38 GiB (90%)
Title                            : AVC 718x462
Writing library                  : x264 core 112
Encoding settings                : cabac=1 / ref=3 / deblock=1:0:0 / analyse=0x3:0x113 / me=hex / subme=7 / psy=1 / psy_rd=1.00:0.00 / mixed_ref=1 / me_range=16 / chroma_me=1 / trellis=1 / 8x8dct=1 / cqm=0 / deadzone=21,11 / fast_pskip=1 / chroma_qp_offset=-2 / threads=3 / sliced_threads=0 / nr=0 / decimate=1 / interlaced=0 / constrained_intra=0 / bframes=3 / b_pyramid=2 / b_adapt=2 / b_bias=0 / direct=1 / weightb=1 / open_gop=0 / weightp=2 / keyint=240 / keyint_min=23 / scenecut=40 / intra_refresh=0 / rc_lookahead=50 / rc=abr / mbtree=1 / bitrate=2300 / ratetol=1.0 / qcomp=0.60 / qpmin=3 / qpmax=51 / qpstep=4 / ip_ratio=1.40 / aq=1:1.00
Color primaries                  : BT.601-6 525, BT.1358 525, BT.1700 NTSC, SMPTE 170M
Transfer characteristics         : BT.709-5, BT.1361
Matrix coefficients              : BT.601-6 525, BT.1358 525, BT.1700 NTSC, SMPTE 170M

Audio
ID                               : 2
Format                           : AC-3
Format/Info                      : Audio Coding 3
Mode extension                   : CM (complete main)
Codec ID                         : A_AC3
Duration                         : 1h 27mn
Bit rate mode                    : Constant
Bit rate                         : 192 Kbps
Channel(s)                       : 2 channels
Channel positions                : Front: L R
Sampling rate                    : 48.0 KHz
Bit depth                        : 16 bits
Compression mode                 : Lossy
Stream size                      : 120 MiB (8%)
Title                            : AC3 2.0
Language                         : English

Text
ID                               : 3
Format                           : UTF-8
Codec ID                         : S_TEXT/UTF8
Codec ID/Info                    : UTF-8 Plain Text
Title                            : Subs EN
Language                         : English

Menu
00:00:00.000                     : en:Chapter 1
00:04:27.934                     : en:Chapter 2
00:11:42.451                     : en:Chapter 3
00:20:33.065                     : en:Chapter 4
00:24:59.581                     : en:Chapter 5
00:30:31.037                     : en:Chapter 6
00:37:26.077                     : en:Chapter 7
00:40:29.885                     : en:Chapter 8
00:48:30.407                     : en:Chapter 9
00:51:48.188                     : en:Chapter 10
00:57:39.539                     : en:Chapter 11
01:04:29.365                     : en:Chapter 12
01:09:39.008                     : en:Chapter 13
01:13:27.194                     : en:Chapter 14
01:18:11.895                     : en:Chapter 15
01:27:04.844                     : en:Chapter 16

_________________
Image


Top
 Profile  
PostPosted: Thu Feb 17, 2011 6:31 pm  Post subject: Re: Dunwich Horror, The (1970)
User avatar
Offline

The Ancient One
Joined: Sat Oct 20, 2007 10:31 am
Posts: 3394
Location: Last house on the Right
lq for bad cropping


Top
 Profile  
Display posts from previous:  Sort by  

All times are UTC [ DST ]

Post new topic Reply to topic  [ 5 posts ] 


Who is online

Users browsing this forum: No registered users and 2 guests


Moderator: Movie Mods

You cannot post new topics in this forum
You cannot reply to topics in this forum
You cannot edit your posts in this forum
You cannot delete your posts in this forum
You cannot post attachments in this forum

Search for:
Jump to:  
Frontpage / Forums / Scifi


What's blood for, if not for shedding?