Why not register?


Post new topic Reply to topic  [ 3 posts ] 

All times are UTC [ DST ]

Author Message
PostPosted: Wed Nov 10, 2010 6:08 pm  Post subject: The Murders In The Rue Morgue (1986)
User avatar
Offline

Master Of The Dead Donkey
Joined: Mon May 01, 2006 12:31 am
Posts: 684
Location: Just Another Freak... In The Freak Kingdom
Image

http://www.imdb.com/title/tt0091574/


This is not my rip. Thanks goes to the original ripper.
Language: English
Subtitle: None


Code:
General
Complete name                    : Murders in the Rue Morgue.avi
Format                           : AVI
Format/Info                      : Audio Video Interleave
File size                        : 930 MiB
Duration                         : 1h 32mn
Overall bit rate                 : 1 412 Kbps
Writing application              : MEncoder dev-SVN-rUNKNOWN-4.2.2
Writing library                  : VirtualDub build 30091/release

Video
Format                           : MPEG-4 Visual
Format profile                   : Simple@L3
Format settings, BVOP            : No
Format settings, QPel            : No
Format settings, GMC             : No warppoints
Format settings, Matrix          : Default
Codec ID                         : XVID
Codec ID/Hint                    : XviD
Duration                         : 1h 32mn
Bit rate                         : 1 208 Kbps
Width                            : 640 pixels
Height                           : 480 pixels
Display aspect ratio             : 4/3
Frame rate                       : 29.970 fps
Resolution                       : 24 bits
Colorimetry                      : 4:2:0
Scan type                        : Progressive
Bits/(Pixel*Frame)               : 0.131
Stream size                      : 796 MiB (86%)
Writing library                  : XviD 1.2.0.dev47 (UTC 2006-11-01)

Audio
Format                           : MPEG Audio
Format version                   : Version 1
Format profile                   : Layer 3
Codec ID                         : 55
Codec ID/Hint                    : MP3
Duration                         : 1h 32mn
Bit rate mode                    : Constant
Bit rate                         : 192 Kbps
Channel(s)                       : 2 channels
Sampling rate                    : 48.0 KHz
Resolution                       : 16 bits
Video delay                      : 13ms
Stream size                      : 127 MiB (14%)
Alignment                        : Split accross interleaves
Interleave, duration             : 33 ms (1.00 video frame)
Interleave, preload duration     : 500 ms



Image Image
Image Image
Image Image
Image Image


ed2k: Murders%20in%20the%20Rue%20Morgue.avi  [930.29 Mb] [Stats]


Enjoy! :beerchug:

_________________
Image
[Welcome To The Worst Nightmare Of All... REALITY]


Top
 Profile  
PostPosted: Wed Nov 10, 2010 6:42 pm  Post subject: Re: The Murders In The Rue Morgue (1986)
User avatar
Offline

The Ancient One
Joined: Sat Oct 20, 2007 10:31 am
Posts: 3381
Location: Last house on the Right
Thank you very much. :beerchug:


Top
 Profile  
PostPosted: Mon Nov 29, 2010 10:00 pm  Post subject: Re: The Murders In The Rue Morgue (1986)
User avatar
Offline

The Devil, Probably
Joined: Wed Jul 18, 2007 8:37 am
Posts: 1859
Location: Rottencuntville
shit, that rebecca on the poster looks like fucking doll or mannequin - thats allready scarry enough

_________________
Image
Life|over | Stockholm | Nackskott | MS Salmonella | I Like BDSM


Top
 Profile  
Display posts from previous:  Sort by  

All times are UTC [ DST ]

Post new topic Reply to topic  [ 3 posts ] 


Who is online

Users browsing this forum: Google [Bot] and 2 guests


Moderator: Movie Mods

You cannot post new topics in this forum
You cannot reply to topics in this forum
You cannot edit your posts in this forum
You cannot delete your posts in this forum
You cannot post attachments in this forum

Search for:
Jump to:  
cron
Frontpage / Forums / Scifi


What's blood for, if not for shedding?