Why not register?


Post new topic Reply to topic  [ 1 post ] 

All times are UTC [ DST ]

Author Message
PostPosted: Sun Apr 08, 2012 7:49 am  Post subject: La bestia uccide a sangue freddo (1971) (Dub)
User avatar
Offline

Mummified In Barbed Wire
Joined: Sun Sep 26, 2010 10:52 am
Posts: 140
Image

English Dubbed

http://www.imdb.com/title/tt0066827/

Quote:
In a psychiatric clinic for rich women, dies murdered, one after another, a nurse and two patients, while an arrow hit another woman. The guilty is a masked man. The police decide to set up a trap, but the line of murdering isn't still over.


Code:
General
Complete name                    : La bestia uccide a sangue freddo 1971.Cg.avi
Format                           : AVI
Format/Info                      : Audio Video Interleave
Format profile                   : OpenDML
Format settings                  : rec
File size                        : 1.52 GiB
Duration                         : 1h 36mn
Overall bit rate                 : 2 269 Kbps
Writing application              : AVI-Mux GUI 1.17.8, Aug 30 2008  12:36:58

Video
ID                               : 0
Format                           : MPEG-4 Visual
Format profile                   : Advanced Simple@L5
Format settings, BVOP            : 2
Format settings, QPel            : No
Format settings, GMC             : No warppoints
Format settings, Matrix          : Default (H.263)
Muxing mode                      : Packed bitstream
Codec ID                         : XVID
Codec ID/Hint                    : XviD
Duration                         : 1h 36mn
Bit rate                         : 1 816 Kbps
Width                            : 640 pixels
Height                           : 272 pixels
Display aspect ratio             : 2.35:1
Frame rate                       : 23.976 fps
Color space                      : YUV
Chroma subsampling               : 4:2:0
Bit depth                        : 8 bits
Scan type                        : Progressive
Compression mode                 : Lossy
Bits/(Pixel*Frame)               : 0.335
Stream size                      : 1.22 GiB (80%)
Writing library                  : XviD 64

Audio
ID                               : 1
Format                           : AC-3
Format/Info                      : Audio Coding 3
Mode extension                   : CM (complete main)
Codec ID                         : 2000
Duration                         : 1h 36mn
Bit rate mode                    : Constant
Bit rate                         : 448 Kbps
Channel(s)                       : 2 channels
Channel positions                : Front: L R
Sampling rate                    : 48.0 KHz
Bit depth                        : 16 bits
Compression mode                 : Lossy
Stream size                      : 308 MiB (20%)
Alignment                        : Aligned on interleaves
Interleave, duration             : 64 ms (1.53 video frames)
Interleave, preload duration     : 192 ms
Title                            : La bestia uccide a sangue freddo


Image

Image

Image

ed2k: La.bestia.uccide.a.sangue.freddo.1971.DVDRip.XviD-CG.avi  [1.52 Gb] [Stats]

_________________
Image

Image

Image


Top
 Profile  
Display posts from previous:  Sort by  

All times are UTC [ DST ]

Post new topic Reply to topic  [ 1 post ] 


Who is online

Users browsing this forum: Google [Bot] and 1 guest


Moderator: Movie Mods

You cannot post new topics in this forum
You cannot reply to topics in this forum
You cannot edit your posts in this forum
You cannot delete your posts in this forum
You cannot post attachments in this forum

Search for:
Jump to:  
cron
Frontpage / Forums / Scifi


What's blood for, if not for shedding?