Why not register?


Post new topic Reply to topic  [ 68 posts ]  Go to page 1, 2, 3, 4  Next

All times are UTC [ DST ]

Author Message
PostPosted: Thu Aug 02, 2007 1:44 am  Post subject: Tales From The Cryptkeeper S1-3 ('93-'97)
User avatar
Offline

Master Of The Dead Donkey
Joined: Mon May 01, 2006 12:31 am
Posts: 684
Location: Just Another Freak... In The Freak Kingdom
Image

To capitalize on the merchandising craze brought forth by HBO's series, "Tales from the Crypt," they invented this Saturday morning cartoon. Much like the series (and EC comics) that the cartoon was based on, the show featured different child characters weekly who ended up in twisted situations, but with a little more morality play than the HBO series. Still hosting was The Cryptkeeper, and in the second season, The Vaultkeeper and The Old Witch (both narrators from the comic series) had come in to upstage The Cryptkeeper. After two seasons, the show disappeared from ABC's lineup, but resurfaced on CBS in 1997 with new episodes, under the title "New Tales from the Cryptkeeper." The Vaultkeeper and the Old Witch were now absent as hosts, and the Cryptkeeper kept popping up within the context of the story more than in the previous seasons. In 1998, CBS dropped their entire Saturday morning children's show schedule. Since then, the show has aired in Canada and elsewhere in the world, but has not been seen again in the USA. Several episodes from the first series were released on VHS by "Sony Wonder," and several episodes of the "All New" series have been released on DVD.

Image Image


Code:
General
Complete name                    : Tales from the Cryptkeeper 101 While the Cat's Away [docslax].avi
Format                           : AVI
Format/Info                      : Audio Video Interleave
File size                        : 176 MiB
Duration                         : 22mn 39s
Overall bit rate                 : 1 084 Kbps
Writing library                  : VirtualDub build 18160/release

Video
Format                           : MPEG-4 Visual
Format profile                   : Streaming Video@L1
Format settings, BVOP            : Yes
Format settings, QPel            : No
Format settings, GMC             : No warppoints
Format settings, Matrix          : Default
Muxing mode                      : Packed bitstream
Codec ID                         : XVID
Codec ID/Hint                    : XviD
Duration                         : 22mn 39s
Bit rate                         : 946 Kbps
Width                            : 640 pixels
Height                           : 480 pixels
Display aspect ratio             : 4/3
Frame rate                       : 23.977 fps
Original frame rate              : 23.976 fps
Resolution                       : 24 bits
Colorimetry                      : 4:2:0
Scan type                        : Progressive
Bits/(Pixel*Frame)               : 0.128
Stream size                      : 153 MiB (87%)
Writing library                  : XviD 1.0.1 (UTC 2004-06-05)

Audio
Format                           : MPEG Audio
Format version                   : Version 1
Format profile                   : Layer 3
Codec ID                         : 55
Codec ID/Hint                    : MP3
Duration                         : 22mn 38s
Bit rate mode                    : Constant
Bit rate                         : 128 Kbps
Channel(s)                       : 2 channels
Sampling rate                    : 44.1 KHz
Resolution                       : 16 bits
Stream size                      : 20.7 MiB (12%)
Alignment                        : Split accross interleaves
Interleave, duration             : 41 ms (0.99 video frame)
Interleave, preload duration     : 500 ms


TVRip - Season 1 :

ed2k: Tales%20from%20the%20Cryptkeeper%20101%20While%20the%20Cat's%20Away%20[docslax].avi  [175.59 Mb] [Stats]
ed2k: Tales%20from%20the%20Cryptkeeper%20102%20Nature%20[docslax].avi  [175.54 Mb] [Stats]
ed2k: Tales%20from%20the%20Cryptkeeper%20102%20Nature%20[p7].avi  [174.69 Mb] [Stats]
ed2k: Tales%20from%20the%20Cryptkeeper%20103%20Pleasant%20Screams%20[docslax].avi  [175.47 Mb] [Stats]
ed2k: Tales%20from%20the%20Cryptkeeper%20103%20Pleasent%20Screams%20[p7].avi  [175.30 Mb] [Stats]
ed2k: Tales%20from%20the%20Cryptkeeper%20104(a)%20Gone%20Fishing%20[docslax].avi  [91.40 Mb] [Stats]
ed2k: Tales%20from%20the%20Cryptkeeper%20104(b)%20A%20Little%20Body%20of%20Work%20[docslax].avi  [83.70 Mb] [Stats]
ed2k: Tales%20from%20the%20Cryptkeeper%20105%20The%20Works.....In%20Wax%20[docslax].avi  [175.90 Mb] [Stats]
ed2k: Tales%20from%20the%20Cryptkeeper%20106%20The%20Sleeping%20Beauty%20[docslax].avi  [175.18 Mb] [Stats]
ed2k: Tales%20from%20the%20Cryptkeeper%20107%20Cave%20Man%20[docslax].avi  [175.59 Mb] [Stats]
ed2k: Tales%20from%20the%20Cryptkeeper%20108%20Hyde%20and%20Go%20Shriek%20[docslax].avi  [175.15 Mb] [Stats]
ed2k: Tales%20from%20the%20Cryptkeeper%20109%20Fare%20Tonight%20[docslax].avi  [175.41 Mb] [Stats]
ed2k: Tales%20from%20the%20Cryptkeeper%20110%20Gorilla's%20Paw%20[docslax].avi  [175.10 Mb] [Stats]
ed2k: Tales%20from%20the%20Cryptkeeper%20111%20This%20Wraps%20It%20Up%20[docslax].avi  [175.17 Mb] [Stats]
ed2k: Tales%20from%20the%20Cryptkeeper%20112%20Grounds%20For%20Horror%20[docslax].avi  [175.24 Mb] [Stats]
ed2k: Tales%20from%20the%20Cryptkeeper%20113%20Ghost%20Ship%20[docslax].avi  [175.13 Mb] [Stats]


Code:
General
Complete name                    : Tales from the Cryptkeeper - 1x01 - While the Cat's Away (dvd) [s-mouche].avi
Format                           : AVI
Format/Info                      : Audio Video Interleave
File size                        : 181 MiB
Duration                         : 22mn 45s
Overall bit rate                 : 1 112 Kbps
Writing library                  : VirtualDub-MPEG2 build 24586/release

Video
Format                           : MPEG-4 Visual
Format profile                   : Streaming Video@L1
Format settings, BVOP            : Yes
Format settings, QPel            : No
Format settings, GMC             : No warppoints
Format settings, Matrix          : Default
Muxing mode                      : Packed bitstream
Codec ID                         : XVID
Codec ID/Hint                    : XviD
Duration                         : 22mn 45s
Bit rate                         : 975 Kbps
Width                            : 640 pixels
Height                           : 480 pixels
Display aspect ratio             : 4/3
Frame rate                       : 23.976 fps
Resolution                       : 24 bits
Colorimetry                      : 4:2:0
Scan type                        : Progressive
Bits/(Pixel*Frame)               : 0.132
Stream size                      : 159 MiB (88%)
Writing library                  : XviD 1.2.0.dev47 (UTC 2006-11-01)

Audio
Format                           : MPEG Audio
Format version                   : Version 1
Format profile                   : Layer 3
Codec ID                         : 55
Codec ID/Hint                    : MP3
Duration                         : 22mn 45s
Bit rate mode                    : Constant
Bit rate                         : 128 Kbps
Channel(s)                       : 2 channels
Sampling rate                    : 48.0 KHz
Resolution                       : 16 bits
Stream size                      : 20.8 MiB (12%)
Alignment                        : Split accross interleaves
Interleave, duration             : 42 ms (1.00 video frame)
Interleave, preload duration     : 500 ms


DVDRip - Season 1 :

ed2k: Tales%20from%20the%20Cryptkeeper%20-%201x01%20-%20While%20the%20Cat's%20Away%...20[s-mouche].avi  [181.03 Mb] [Stats]
ed2k: Tales%20from%20the%20Cryptkeeper%20-%201x02%20-%20Nature%20(dvd)%20[s-mouche].avi  [180.53 Mb] [Stats]
ed2k: Tales%20from%20the%20Cryptkeeper%20-%201x03%20-%20Pleasant%20Screams%20(dvd&#...20[s-mouche].avi  [180.71 Mb] [Stats]
ed2k: Tales%20from%20the%20Cryptkeeper%20-%201x04%20-%20Gone%20Fishin'%20-%20A%20Li...20[s-mouche].avi  [180.94 Mb] [Stats]
ed2k: Tales%20from%20the%20Cryptkeeper%20-%201x05%20-%20The%20Works...In%20Wax%20(d...20[s-mouche].avi  [180.94 Mb] [Stats]
ed2k: Tales%20from%20the%20Cryptkeeper%20-%201x06%20-%20The%20Sleeping%20Beauty%20(...20[s-mouche].avi  [180.68 Mb] [Stats]
ed2k: Tales%20from%20the%20Cryptkeeper%20-%201x07%20-%20Cave%20Man%20(dvd)%20[s-mouche].avi  [180.66 Mb] [Stats]
ed2k: Tales%20from%20the%20Cryptkeeper%20-%201x08%20-%20Hyde%20and%20Go%20Shriek%20(...20[s-mouche].avi  [180.71 Mb] [Stats]
ed2k: Tales%20from%20the%20Cryptkeeper%20-%201x09%20-%20Fare%20Tonight%20(dvd)%20[s-mouche].avi  [180.94 Mb] [Stats]
ed2k: Tales%20from%20the%20Cryptkeeper%20-%201x10%20-%20Gorilla's%20Paw%20(dvd&...20[s-mouche].avi  [180.65 Mb] [Stats]
ed2k: Tales%20from%20the%20Cryptkeeper%20-%201x11%20-%20This%20Wraps%20It%20Up%20(d...20[s-mouche].avi  [180.68 Mb] [Stats]
ed2k: Tales%20from%20the%20Cryptkeeper%20-%201x12%20-%20Grounds%20For%20Horror%20(d...20[s-mouche].avi  [180.94 Mb] [Stats]
ed2k: Tales%20from%20the%20Cryptkeeper%20-%201x13%20-%20Ghost%20Ship%20(dvd)%20[s-mouche].avi  [180.94 Mb] [Stats]

Image Image Image


Code:
General
Complete name                    : Tales from the Cryptkeeper 201 Game Over [docslax].avi
Format                           : AVI
Format/Info                      : Audio Video Interleave
File size                        : 175 MiB
Duration                         : 22mn 40s
Overall bit rate                 : 1 078 Kbps
Writing library                  : VirtualDub build 18160/release

Video
Format                           : MPEG-4 Visual
Format profile                   : Streaming Video@L1
Format settings, BVOP            : Yes
Format settings, QPel            : No
Format settings, GMC             : No warppoints
Format settings, Matrix          : Default
Muxing mode                      : Packed bitstream
Codec ID                         : XVID
Codec ID/Hint                    : XviD
Duration                         : 22mn 40s
Bit rate                         : 940 Kbps
Width                            : 640 pixels
Height                           : 480 pixels
Display aspect ratio             : 4/3
Frame rate                       : 23.976 fps
Resolution                       : 24 bits
Colorimetry                      : 4:2:0
Scan type                        : Progressive
Bits/(Pixel*Frame)               : 0.128
Stream size                      : 152 MiB (87%)
Writing library                  : XviD 1.0.0 (UTC 2004-05-09)

Audio
Format                           : MPEG Audio
Format version                   : Version 1
Format profile                   : Layer 3
Codec ID                         : 55
Codec ID/Hint                    : MP3
Duration                         : 22mn 40s
Bit rate mode                    : Constant
Bit rate                         : 128 Kbps
Channel(s)                       : 2 channels
Sampling rate                    : 44.1 KHz
Resolution                       : 16 bits
Stream size                      : 20.8 MiB (12%)
Alignment                        : Split accross interleaves
Interleave, duration             : 41 ms (0.99 video frame)
Interleave, preload duration     : 500 ms


TVRip - Season 2 :

ed2k: Tales%20from%20the%20Cryptkeeper%20201%20Game%20Over%20[docslax].avi  [174.79 Mb] [Stats]
ed2k: Tales%20from%20the%20Cryptkeeper%20202(a)%20Cold%20Blood,%20Warm%20Hearts%20[docslax].avi  [90.37 Mb] [Stats]
ed2k: Tales%20from%20the%20Cryptkeeper%20202(b)%20The%20Spider%20And%20The%20Flies%20[docslax].avi  [84.12 Mb] [Stats]
ed2k: Tales%20from%20the%20Cryptkeeper%20203(a)%20The%20Avenging%20Phantom%20[docslax].avi  [106.14 Mb] [Stats]
ed2k: Tales%20from%20the%20Cryptkeeper%20203(b)%20Myth%20Conceptions%20[docslax].avi  [69.04 Mb] [Stats]
ed2k: Tales%20from%20the%20Cryptkeeper%20204%20All%20the%20Gory%20Details%20[docslax].avi  [174.85 Mb] [Stats]
ed2k: Tales%20from%20the%20Cryptkeeper%20205%20The%20Weeping%20Woman%20[docslax].avi  [175.31 Mb] [Stats]
ed2k: Tales%20from%20the%20Cryptkeeper%20206%20Dead%20Men%20Don't%20Jump%20[docslax].avi  [175.01 Mb] [Stats]
ed2k: Tales%20from%20the%20Cryptkeeper%20207%20The%20Haunted%20Mine%20[docslax].avi  [175.06 Mb] [Stats]
ed2k: Tales%20from%20the%20Cryptkeeper%20208%20growing%20pains%20[docslax].avi  [175.31 Mb] [Stats]
ed2k: Tales%20from%20the%20Cryptkeeper%20209%20the%20brothers%20gruff%20[docslax].avi  [174.51 Mb] [Stats]
ed2k: Tales%20from%20the%20Cryptkeeper%20210%20uncle%20harry's%20horrible%20house%2...%20[docslax].avi  [174.25 Mb] [Stats]
ed2k: Tales%20from%20the%20Cryptkeeper%20211%20hunted%20[docslax].avi  [174.66 Mb] [Stats]
ed2k: Tales%20from%20the%20Cryptkeeper%20212%20Chuck%20and%20Melvin%20and%20the%20Beans...%20[docslax].avi  [174.74 Mb] [Stats]
ed2k: Tales%20from%20the%20Cryptkeeper%20213%20transylvania%20express%20[docslax].avi  [175.58 Mb] [Stats]


Code:
General
Complete name                    : D:\TV Series\Tales From The Cryptkeeper DVDRip\Tales from the Cryptkeeper - 2x01 - Game Over (dvd) [s-mouche].avi
Format                           : AVI
Format/Info                      : Audio Video Interleave
File size                        : 182 MiB
Duration                         : 20mn 54s
Overall bit rate                 : 1 216 Kbps
Writing library                  : VirtualDub-MPEG2 build 24586/release

Video
Format                           : MPEG-4 Visual
Format profile                   : Streaming Video@L1
Format settings, BVOP            : Yes
Format settings, QPel            : No
Format settings, GMC             : No warppoints
Format settings, Matrix          : Default
Muxing mode                      : Packed bitstream
Codec ID                         : XVID
Codec ID/Hint                    : XviD
Duration                         : 20mn 54s
Bit rate                         : 1 077 Kbps
Width                            : 640 pixels
Height                           : 480 pixels
Display aspect ratio             : 4/3
Frame rate                       : 29.970 fps
Resolution                       : 24 bits
Colorimetry                      : 4:2:0
Scan type                        : Progressive
Bits/(Pixel*Frame)               : 0.117
Stream size                      : 161 MiB (89%)
Writing library                  : XviD 1.2.0.dev47 (UTC 2006-11-01)

Audio
Format                           : MPEG Audio
Format version                   : Version 1
Format profile                   : Layer 3
Codec ID                         : 55
Codec ID/Hint                    : MP3
Duration                         : 20mn 54s
Bit rate mode                    : Constant
Bit rate                         : 128 Kbps
Channel(s)                       : 2 channels
Sampling rate                    : 48.0 KHz
Resolution                       : 16 bits
Stream size                      : 19.1 MiB (11%)
Alignment                        : Split accross interleaves
Interleave, duration             : 33 ms (1.00 video frame)
Interleave, preload duration     : 500 ms


DVDRip - Season 2 :

ed2k: Tales%20from%20the%20Cryptkeeper%20-%202x01%20-%20Game%20Over%20(dvd)%20[s-mouche].avi  [181.93 Mb] [Stats]
ed2k: Tales%20from%20the%20Cryptkeeper%20-%202x02%20-%20Cold%20Blood,%20Warm%20Heart%20...20[s-mouche].avi  [182.20 Mb] [Stats]
ed2k: Tales%20from%20the%20Cryptkeeper%20-%202x03%20-%20The%20Avenging%20Phantom%20-%20...20[s-mouche].avi  [182.17 Mb] [Stats]
ed2k: Tales%20from%20the%20Cryptkeeper%20-%202x04%20-%20All%20the%20Gory%20Details%20&#...20[s-mouche].avi  [182.19 Mb] [Stats]
ed2k: Tales%20from%20the%20Cryptkeeper%20-%202x05%20-%20The%20Weeping%20(dvd)%20[s-mouche].avi  [182.23 Mb] [Stats]
ed2k: Tales%20from%20the%20Cryptkeeper%20-%202x06%20-%20Dead%20Men%20Don't%20Jump%2...20[s-mouche].avi  [182.24 Mb] [Stats]
ed2k: Tales%20from%20the%20Cryptkeeper%20-%202x07%20-%20The%20Haunted%20Mine%20(dvd...20[s-mouche].avi  [182.21 Mb] [Stats]
ed2k: Tales%20from%20the%20Cryptkeeper%20-%202x08%20-%20Growing%20Pains%20(dvd)%20[s-mouche].avi  [182.24 Mb] [Stats]
ed2k: Tales%20from%20the%20Cryptkeeper%20-%202x09%20-%20The%20Brothers%20Gruff%20(d...20[s-mouche].avi  [182.22 Mb] [Stats]
ed2k: Tales%20from%20the%20Cryptkeeper%20-%202x10%20-%20Uncle%20Harry's%20Horrible%...20[s-mouche].avi  [182.13 Mb] [Stats]
ed2k: Tales%20from%20the%20Cryptkeeper%20-%202x11%20-%20Hunted%20(dvd)%20[s-mouche].avi  [182.23 Mb] [Stats]
ed2k: Tales%20from%20the%20Cryptkeeper%20-%202x12%20-%20Chuck%20(and%20Melvin)%...20[s-mouche].avi  [182.23 Mb] [Stats]
ed2k: Tales%20from%20the%20Cryptkeeper%20-%202x13%20-%20Transylvania%20Express%20(d...20[s-mouche].avi  [182.23 Mb] [Stats]

Image Image Image


Code:
General
Complete name                    : New Tales from the Cryptkeeper 301 Sharon Sharalike [animated80s].avi
Format                           : AVI
Format/Info                      : Audio Video Interleave
File size                        : 173 MiB
Duration                         : 20mn 51s
Overall bit rate                 : 1 160 Kbps
Writing application              : VirtualDubMod 1.5.10.2 (build 2540/release)
Writing library                  : VirtualDubMod build 2540/release

Video
Format                           : MPEG-4 Visual
Format profile                   : Streaming Video@L1
Format settings, BVOP            : Yes
Format settings, QPel            : No
Format settings, GMC             : No warppoints
Format settings, Matrix          : Default
Muxing mode                      : Packed bitstream
Codec ID                         : XVID
Codec ID/Hint                    : XviD
Duration                         : 20mn 51s
Bit rate                         : 1 018 Kbps
Width                            : 512 pixels
Height                           : 352 pixels
Display aspect ratio             : 1.455
Frame rate                       : 29.970 fps
Resolution                       : 24 bits
Colorimetry                      : 4:2:0
Scan type                        : Progressive
Bits/(Pixel*Frame)               : 0.189
Stream size                      : 152 MiB (88%)
Writing library                  : XviD 1.1.2 (UTC 2006-11-01)

Audio
Format                           : MPEG Audio
Format version                   : Version 1
Format profile                   : Layer 3
Codec ID                         : 55
Codec ID/Hint                    : MP3
Duration                         : 20mn 51s
Bit rate mode                    : Variable
Bit rate                         : 128 Kbps
Channel(s)                       : 2 channels
Sampling rate                    : 48.0 KHz
Resolution                       : 16 bits
Stream size                      : 19.0 MiB (11%)
Alignment                        : Aligned on interleaves
Interleave, duration             : 24 ms (0.72 video frame)
Interleave, preload duration     : 502 ms
Writing library                  : LAME3.90.
Encoding settings                : ABR


TVRip - Season 3 :

ed2k: New%20Tales%20from%20the%20Cryptkeeper%20301%20Sharon%20Sharalike%20[animated80s].avi  [173.00 Mb] [Stats]
ed2k: New%20Tales%20from%20the%20Cryptkeeper%20302%20Imaginary%20Friend%20[animated80s].avi  [173.26 Mb] [Stats]
ed2k: New%20Tales%20from%20the%20Cryptkeeper%20303%20Waste%20not,%20Haunt%20not%20[animated80s].avi  [175.62 Mb] [Stats]
ed2k: New%20Tales%20from%20the%20Cryptkeeper%20304%20Unpopular%20Mechanics%20[p2g].avi  [172.12 Mb] [Stats]
ed2k: New%20Tales%20from%20the%20Cryptkeeper%20304%20Unpopular%20Mechanics.avi  [469.74 Mb] [Stats]
ed2k: New%20Tales%20from%20the%20Cryptkeeper%20305%20Competitive%20Spirit%20[animated80s].avi  [175.40 Mb] [Stats]
ed2k: New%20Tales%20from%20the%20Cryptkeeper%20306%20Trouble%20in%20Store%20[animated80s].avi  [175.68 Mb] [Stats]
ed2k: New%20Tales%20from%20the%20Cryptkeeper%20307%20So%20Very%20Attractive%20[animated80s].avi  [175.32 Mb] [Stats]
ed2k: New%20Tales%20from%20the%20Cryptkeeper%20308%20Drawn%20and%20Quartered%20[animated80s].avi  [175.54 Mb] [Stats]
ed2k: New%20Tales%20from%20the%20Cryptkeeper%20309%20All%20Booked%20Up%20[p2g].avi  [172.10 Mb] [Stats]
ed2k: New%20Tales%20from%20the%20Cryptkeeper%20309%20All%20Booked%20Up.avi  [355.79 Mb] [Stats]
ed2k: New%20Tales%20from%20the%20Cryptkeeper%20310%20Town%20Gathering%20[p2g].avi  [172.11 Mb] [Stats]
ed2k: New%20Tales%20from%20the%20Cryptkeeper%20310%20Town%20Gathering.avi  [355.60 Mb] [Stats]
ed2k: New%20Tales%20from%20the%20Cryptkeeper%20311%20It's%20For%20You%20[Animated80s].avi  [174.04 Mb] [Stats]
ed2k: New%20Tales%20from%20the%20Cryptkeeper%20312%20Monsters%20Ate%20My%20Homework.avi  [178.89 Mb] [Stats]
ed2k: New%20Tales%20from%20the%20Cryptkeeper%20313%20Too%20Cool%20For%20School.avi  [178.12 Mb] [Stats]

Image Image Image


EXTRA :

ed2k: Tales%20from%20the%20Cryptkeeper%20-%20closing%20(dvd)%20[s-mouche].avi  [4.59 Mb] [Stats]
ed2k: Tales%20from%20the%20Cryptkeeper%20-%20opening%20(dvd)%20[s-mouche].avi  [10.14 Mb] [Stats]


Enjoy ! and all thanks go to docslax, p7, Animated80s and p2g for the TVRips of those episodes, ScipioTL & toetagga for the torrents links and to ianm1225 for his original topic about this serie.

And a special thanks to ScipioTL (s-mouche) for the DVDRips ! :wink:

Cheers guys ! :beerchug:

[ Add all 75 links to your ed2k client ]

_________________
Image
[Welcome To The Worst Nightmare Of All... REALITY]


Last edited by EvilDeadlyImmortal on Thu Apr 29, 2010 5:19 am, edited 24 times in total.

Top
 Profile  
PostPosted: Sun Aug 19, 2007 8:51 am  Post subject:
User avatar
Offline

Master Of The Dead Donkey
Joined: Mon Mar 13, 2006 3:34 pm
Posts: 820
Nice post, fuckin' nick! Not interested myself, but this one was missing here...

:beerchug:

_________________
http://images.dead-donkey.com/images/lefrogyf8.gif


Top
 Profile  
PostPosted: Sun Aug 19, 2007 7:42 pm  Post subject:
User avatar
Offline

Master Of The Dead Donkey
Joined: Mon May 01, 2006 12:31 am
Posts: 684
Location: Just Another Freak... In The Freak Kingdom
Thank :P

Well, you should give it a try cause it worth it, especially if you're a Tales From The Crypt fanatic like me ! :mrgreen:

Great story, some are too simple but still very good, and the cartoon is pretty good, as well of the Cryptkeeper voice (John Kassir of course) so...

Just try the last episode of the second season, 2x13 - transylvania express, and see by yourself :wink: it's one of my favorite and it's only 175MB, i'm sure your bandwith can handle that !

_________________
Image
[Welcome To The Worst Nightmare Of All... REALITY]


Top
 Profile  
PostPosted: Sun Aug 19, 2007 7:45 pm  Post subject:
User avatar
Offline

Master Of The Dead Donkey
Joined: Mon Mar 13, 2006 3:34 pm
Posts: 820
:lol:

No, thanks. You know why, don't insist... :wink:

_________________
http://images.dead-donkey.com/images/lefrogyf8.gif


Top
 Profile  
PostPosted: Sun Aug 19, 2007 7:46 pm  Post subject:
User avatar
Offline

Master Of The Dead Donkey
Joined: Mon May 01, 2006 12:31 am
Posts: 684
Location: Just Another Freak... In The Freak Kingdom
:lol: :lol: :lol: :roll:

_________________
Image
[Welcome To The Worst Nightmare Of All... REALITY]


Top
 Profile  
PostPosted: Sun Aug 19, 2007 8:02 pm  Post subject:
User avatar
Offline

Master Of The Dead Donkey
Joined: Mon Mar 13, 2006 3:34 pm
Posts: 820
You'll see when you'll be a grouchy old fart as I am, you won't care about the things kids like today.

I'm mad about the 2 first Creepshow, I like the spirit of The Tales from the Crypt, because they are closed from King's movies, but don't ask me to like the cartoons. I've tried some, 10 years ago. I'm old, kid!

I just wanted to tell you that your post was missing here. And that's it!

_________________
http://images.dead-donkey.com/images/lefrogyf8.gif


Top
 Profile  
PostPosted: Sun Jan 20, 2008 5:34 am  Post subject:
User avatar
Offline

Master Of The Dead Donkey
Joined: Mon May 01, 2006 12:31 am
Posts: 684
Location: Just Another Freak... In The Freak Kingdom
Season 3 episode 11 just added :

Thanks go to ScipioTL for sending me the link ! and to the ripper, Animated80s. :D

_________________
Image
[Welcome To The Worst Nightmare Of All... REALITY]


Last edited by EvilDeadlyImmortal on Mon Feb 11, 2008 11:35 pm, edited 2 times in total.

Top
 Profile  
PostPosted: Sun Jan 20, 2008 6:17 am  Post subject:
User avatar
Offline

Master Of The Dead Donkey
Joined: Mon May 01, 2006 12:31 am
Posts: 684
Location: Just Another Freak... In The Freak Kingdom
Full DVD of Season 1 just added (just look at the main topic) :

ed2k: Tales.From.The.Cryptkeeper.The.Complete.First.Season.(Pleasant.Screams.Box.Set).DVD1.iso  [4.37 Gb] [Stats]
ed2k: Tales.From.The.Cryptkeeper.The.Complete.First.Season.(Pleasant.Screams.Box.Set).DVD2.iso  [4.37 Gb] [Stats]

I'm the only source for right now, so please be kind, take your time and share after, i'll put them on Release and on PowerShare. :wink:

[ Add all 2 links to your ed2k client ]

_________________
Image
[Welcome To The Worst Nightmare Of All... REALITY]


Top
 Profile  
PostPosted: Mon Jan 21, 2008 1:03 am  Post subject:
User avatar
Offline

Master Of The Dead Donkey
Joined: Mon May 01, 2006 12:31 am
Posts: 684
Location: Just Another Freak... In The Freak Kingdom
Or if you prefer a Torrent, there it is, i've post it on the BitTorrent network too, and maybe, when you'll finish it, you'll help me sharing them on eMule... :roll: :wink:

Image

:beerchug:

_________________
Image
[Welcome To The Worst Nightmare Of All... REALITY]


Last edited by EvilDeadlyImmortal on Thu Aug 21, 2008 5:47 pm, edited 1 time in total.

Top
 Profile  
PostPosted: Mon Jan 21, 2008 7:54 pm  Post subject:
User avatar
Offline

The Devil, Probably
Joined: Wed Jul 18, 2007 8:37 am
Posts: 1859
Location: Rottencuntville
a great stuff, if you ask me :beerchug:
dont' bother :D

_________________
Image
Life|over | Stockholm | Nackskott | MS Salmonella | I Like BDSM


Top
 Profile  
PostPosted: Mon Feb 11, 2008 11:34 pm  Post subject:
User avatar
Offline

Master Of The Dead Donkey
Joined: Mon May 01, 2006 12:31 am
Posts: 684
Location: Just Another Freak... In The Freak Kingdom
*UPDATE :

All episodes for Season 3 added !

Season 1 & 2 : Some change i've been made for some episodes of Season 1 and 2, not entirely my fault, but a big part yes :oops: , it's from the Torrent i've downloaded them, so, S01E01, S01E04 and S02E13 are not exactly the same, so the hash have changed. Sorry :cry: And there is two new rip from docslax for the Season 1 (SO1E02 and S01E03) so now it complete the docslax rips. I let the p7 rips on the listing anyway, cause some peoples already have them.

Season 3 : Now complete, with the Animated80s and p2g rips, so, i've left the old ones (350MB files) on the list anyway, make your choice...

_________________
Image
[Welcome To The Worst Nightmare Of All... REALITY]


Top
 Profile  
PostPosted: Fri Feb 15, 2008 3:39 pm  Post subject:
Request Territory
Offline

Request Territory
Joined: Fri Feb 15, 2008 1:53 am
Posts: 4
hey im new to this Emule game how come when i click to download they just sit in emule saying waiting..............any chance u could help me out with like some rapidshare links lol if u know what that is,,,,,,,,,,,,,,,,,,,hit me bac i really wanna see this show again


Top
 Profile  
PostPosted: Fri Feb 15, 2008 3:49 pm  Post subject:
User avatar
Offline

The Ancient One
Joined: Sat Oct 20, 2007 10:31 am
Posts: 3354
Location: Last house on the Right
eMule is like going to the doctor. You'll have to wait until it's your turn (to download). :)


Top
 Profile  
PostPosted: Fri Feb 15, 2008 5:45 pm  Post subject:
Request Territory
Offline

Request Territory
Joined: Fri Feb 15, 2008 1:53 am
Posts: 4
ya but i wait at the doctor for 1 hour tops ive been waiting on these for now 24 hours lol


Top
 Profile  
PostPosted: Fri Feb 15, 2008 5:48 pm  Post subject:
User avatar
Offline

Master Of The Dead Donkey
Joined: Mon May 01, 2006 12:31 am
Posts: 684
Location: Just Another Freak... In The Freak Kingdom
elchupacabra wrote:
eMule is like going to the doctor. You'll have to wait until it's your turn (to download). :)


Like he said ! :wink:

But just to be sure :

-Having a HighID help a lot (it mean that your TCP & UDP ports of eMule are both open in your Third Party Firewall and/or router, I highly recommend you to have a HighID)
-What is the version of eMule you're running (the lastest 0.48a I hope...) ? and do you use a mod, or the official client ? If you use a leecher mod, I will kick your ass man :twisted: :twisted:
-Do you use the Obfuscation Protocol, and do you use the option Secure Identification ?
-Are your Servers list is ''clean'' or you're using the Servers by default that come with eMule ?

Let me know if you can see me, and let me know you name in eMule so I could check out in my queue and add you to my Friend list and give you a slot so you could download ''a little'' faster ! :D

_________________
Image
[Welcome To The Worst Nightmare Of All... REALITY]


Last edited by EvilDeadlyImmortal on Wed Apr 09, 2008 4:41 pm, edited 1 time in total.

Top
 Profile  
PostPosted: Fri Feb 15, 2008 10:43 pm  Post subject:
Request Territory
Offline

Request Territory
Joined: Fri Feb 15, 2008 1:53 am
Posts: 4
im running the v0.48 ...lol i dono what any of these addons are lol i didnt even know i had a user name on the emule lol but i did see your name in the users Q list i do knw the server is Razorback 3.1 i will click your name and ask to add to freinds


Top
 Profile  
PostPosted: Fri Feb 15, 2008 10:48 pm  Post subject:
Request Territory
Offline

Request Territory
Joined: Fri Feb 15, 2008 1:53 am
Posts: 4
i think i made my name themanwithaplan


Top
 Profile  
PostPosted: Tue Mar 11, 2008 12:34 pm  Post subject: Re: Tales From The Cryptkeeper S1-3 ('93-'97)(Rip & DVD-R)
Offline

Skull Full Of Maggots
Joined: Sat Jul 03, 2004 1:09 am
Posts: 43
Location: NY
I'm thrilled to see season 3 up here completed finally! I have many of the downloaded from Emule with a few more in queue. Thanks!!


Top
 Profile  
PostPosted: Tue Mar 11, 2008 3:18 pm  Post subject: Re: Tales From The Cryptkeeper S1-3 ('93-'97)(Rip & DVD-R)
User avatar
Offline

Master Of The Dead Donkey
Joined: Mon May 01, 2006 12:31 am
Posts: 684
Location: Just Another Freak... In The Freak Kingdom
ianm1225 wrote:
I'm thrilled to see season 3 up here completed finally! I have many of the downloaded from Emule with a few more in queue. Thanks!!


Good to know that you're still here buddy ! Let me know in eMule if you need a little help to push them to the end !! :wink:

But if you didn't see any episodes from Season 3 yet, don't expect too much, cause Season 3 is really not the same as Season 1 & 2. They have change the formula, the color and some producer of the show so it's completely different, still enjoyable, but not the same atmosphere from Season 1 & 2.

Anyway, enjoy ! :beerchug:

_________________
Image
[Welcome To The Worst Nightmare Of All... REALITY]


Top
 Profile  
PostPosted: Fri Apr 04, 2008 5:24 pm  Post subject: Re: Tales From The Cryptkeeper S1-3 ('93-'97)(Rip & DVD-R)
Request Territory
Offline

Request Territory
Joined: Wed Apr 11, 2007 7:02 pm
Posts: 2
thanks for the DVDs :D :rock:


Top
 Profile  
Display posts from previous:  Sort by  

All times are UTC [ DST ]

Post new topic Reply to topic  [ 68 posts ]  Go to page 1, 2, 3, 4  Next


Who is online

Users browsing this forum: No registered users and 2 guests


You cannot post new topics in this forum
You cannot reply to topics in this forum
You cannot edit your posts in this forum
You cannot delete your posts in this forum
You cannot post attachments in this forum

Search for:
Jump to:  
cron
Frontpage / Forums / Scifi


What's blood for, if not for shedding?