Why not register?


Post new topic Reply to topic  [ 26 posts ]  Go to page 1, 2  Next

All times are UTC [ DST ]

Author Message
PostPosted: Fri Mar 07, 2003 7:58 am  Post subject: Rawhead Rex (1986)
User avatar
Offline

Skull Full Of Maggots
Joined: Wed Jan 01, 2003 4:03 pm
Posts: 63
Location: HHAH Chatroom on IRC
1.24 GB rip

This image has been resized

http://www.imdb.com/title/tt0091829/

Widescreen version (if it's really widescreen :roll: )
This is a DVDRip of the MadMovies DVD from Europe.

Aspect Ratio: DVDCompare say 1.78:1 but it's written 1.75:1 on the back cover.
Picture Format: Anamorphic

Code:
General
Complete name                    : Rawhead.Rex.1986.DVDRip.Widescreen.XviD.AC3.(MadMovies.DVD.Rip).avi
Format                           : AVI
Format/Info                      : Audio Video Interleave
File size                        : 1.24 GiB
Duration                         : 1h 25mn
Overall bit rate                 : 2 073 Kbps
Writing application              : VirtualDubMod 1.5.10.2 (build 2540/release)
Writing library                  : VirtualDubMod build 2540/release

Video
Format                           : MPEG-4 Visual
Format profile                   : Streaming Video@L1
Format settings, BVOP            : Yes
Format settings, QPel            : No
Format settings, GMC             : No warppoints
Format settings, Matrix          : Default
Codec ID                         : XVID
Codec ID/Hint                    : XviD
Duration                         : 1h 25mn
Bit rate                         : 1 871 Kbps
Width                            : 640 pixels
Height                           : 368 pixels
Display aspect ratio             : 16/9
Frame rate                       : 25.000 fps
Resolution                       : 24 bits
Colorimetry                      : 4:2:0
Scan type                        : Progressive
Bits/(Pixel*Frame)               : 0.318
Stream size                      : 1.12 GiB (90%)
Writing library                  : XviD 50

Audio
Format                           : AC-3
Format/Info                      : Audio Coding 3
Codec ID                         : 2000
Duration                         : 1h 25mn
Bit rate mode                    : Constant
Bit rate                         : 192 Kbps
Channel(s)                       : 2 channels
Channel positions                : L R
Sampling rate                    : 48.0 KHz
Stream size                      : 118 MiB (9%)
Alignment                        : Split accross interleaves
Interleave, duration             : 40 ms (1.00 video frame)
Interleave, preload duration     : 500 ms



This image has been resized This image has been resized
This image has been resized This image has been resized
This image has been resized This image has been resized
This image has been resized This image has been resized
This image has been resized This image has been resized


ed2k: Rawhead.Rex.1986.DVDRip.Widescreen.XviD.AC3.(MadMovies.DVD.Rip).avi  [1.24 Gb] [Stats]

Enjoy ! :beerchug:


700 MB rip

This is a rerip of Rawhead, not the xvid one that was floating around on irc.If anyone has started to d/l the xvid one, pm me and I'll make sure you finish it. Will post a sample this evening.

Bobble

Sample : - sample rawhead re-rip divx 5.03[bobble991].avi

Movie : - rawhead re-rip divx 5.03[bobble991].avi

Enjoy

[ Add all 3 links to your ed2k client ]

_________________
Image


Last edited by bobble991 on Fri Mar 07, 2003 3:13 pm, edited 1 time in total.

Top
 Profile  
PostPosted: Fri Mar 07, 2003 11:39 am  Post subject:
Offline

The Devil, Probably
Joined: Sun Dec 08, 2002 3:07 am
Posts: 2174
Location: I'm inside of you.
is this the one i got?
i think mirc may not be transfer-friendly. I had to run it thru nanodub to get it to work. Turned out nice though.well not the movie itself, that was kind of cheesey. I mean the quality of the encode was nice.


Top
 Profile  
PostPosted: Fri Mar 07, 2003 3:04 pm  Post subject:
User avatar
Offline

Skull Full Of Maggots
Joined: Wed Jan 01, 2003 4:03 pm
Posts: 63
Location: HHAH Chatroom on IRC
Nope, not the one that you got it's a divx 5.0.3 rip @698Mb. Nice quality also. Catch you later

PS What did you do to it in nanodub.?

_________________
Image


Top
 Profile  
PostPosted: Fri Mar 07, 2003 10:11 pm  Post subject:
Offline

The Devil, Probably
Joined: Sun Dec 08, 2002 3:07 am
Posts: 2174
Location: I'm inside of you.
open in avi-compatability, re-derive keyframes. clip a second or two from the end.
if i get an error that says 'invalid avi chunkxxxxxxx outside boundry xxxxxx'.

i think mirc must put headers on resumes that messes stuf up


Top
 Profile  
PostPosted: Sat Jul 03, 2010 9:49 pm  Post subject: Re: Rawhead Rex (1986)
User avatar
Offline

The Devil, Probably
Joined: Wed Jul 18, 2007 8:37 am
Posts: 1859
Location: Rottencuntville
Image


http://www.imdb.com/title/tt0091829/

Code:
Video [Xvid][25Fps][512x384]
Audio [English][AC3.48000Hz.224.kb/s.stereo(2/0)]


Quote:
Ireland will never be the same after Rawhead Rex, a particularly nasty demon, is released from his underground prison by an unwitting farmer. The film follows Rex's cross country rampage, while a man struggles to stop it.


Image

Image

Image

Image

Image



ed2k: Rawhead.Rex.(1986).DVDRip.XviD-MDCTeam.avi  [700.42 Mb] [Stats][/center]

_________________
Image
Life|over | Stockholm | Nackskott | MS Salmonella | I Like BDSM


Top
 Profile  
PostPosted: Mon Jul 05, 2010 5:03 pm  Post subject: Re: Rawhead Rex (1986)
User avatar
Offline

The Ancient One
Joined: Mon Jan 22, 2007 9:13 pm
Posts: 7596
ed2k: Rawhead.Rex.(1986).DVDRip.XviD-MDCTeam.avi  [700.42 Mb] [Stats]

Anyone able to help out? Missing like 15 chunks.

_________________
Image
THIRD SEAL MEANS FAMINE


Top
 Profile  
PostPosted: Tue Jul 06, 2010 3:18 pm  Post subject: Re: Rawhead Rex (1986)
Offline

Dead But Dreaming
Joined: Mon Jan 29, 2007 2:23 pm
Posts: 327
back in shares


Top
 Profile  
PostPosted: Wed Jul 07, 2010 11:56 am  Post subject: Re: Rawhead Rex (1986)
User avatar
Offline

Master Of The Dead Donkey
Joined: Mon May 01, 2006 12:31 am
Posts: 684
Location: Just Another Freak... In The Freak Kingdom
Source of the DVD ? Is it from the X-Rated Kult DVD, Prism Leisure, MadMovies or Pioneer one ?

_________________
Image
[Welcome To The Worst Nightmare Of All... REALITY]


Top
 Profile  
PostPosted: Thu Jul 08, 2010 10:48 pm  Post subject: Re: Rawhead Rex (1986)
User avatar
Offline

Master Of The Dead Donkey
Joined: Mon May 01, 2006 12:31 am
Posts: 684
Location: Just Another Freak... In The Freak Kingdom
Here's a little comparison I made of the editions I own, if anyone is interested. What's good to know/see, is that the MadMovies DVD contain a widescreen version, BUT, it's Anamorphic or something, and it is missing some frame on the top and bottom of the picture. So, what's best ? the fullscreen or widescreen version for you ?

Pioneer / Artisan :
This image has been resized This image has been resized This image has been resized
X-Rated Kult DVD :
This image has been resized This image has been resized This image has been resized
Prism Leisure :
This image has been resized This image has been resized This image has been resized
MadMovies :
This image has been resized This image has been resized This image has been resized


Pioneer / Artisan :
This image has been resized This image has been resized This image has been resized
X-Rated Kult DVD :
This image has been resized This image has been resized This image has been resized
Prism Leisure :
This image has been resized This image has been resized This image has been resized
MadMovies :
This image has been resized This image has been resized This image has been resized


Pioneer / Artisan :
This image has been resized This image has been resized This image has been resized
X-Rated Kult DVD :
This image has been resized This image has been resized This image has been resized
Prism Leisure :
This image has been resized This image has been resized This image has been resized
MadMovies :
This image has been resized This image has been resized This image has been resized


Pioneer / Artisan :
This image has been resized This image has been resized This image has been resized
X-Rated Kult DVD :
This image has been resized This image has been resized This image has been resized
Prism Leisure :
This image has been resized This image has been resized This image has been resized
MadMovies :
This image has been resized This image has been resized This image has been resized

_________________
Image
[Welcome To The Worst Nightmare Of All... REALITY]


Top
 Profile  
PostPosted: Fri Jul 09, 2010 7:10 am  Post subject: Re: Rawhead Rex (1986)
User avatar
Offline

The Ancient One
Joined: Sat Oct 20, 2007 10:31 am
Posts: 3424
Location: here
MadMovies looks best to me.


Top
 Profile  
PostPosted: Fri Jul 09, 2010 8:16 pm  Post subject: Re: Rawhead Rex (1986)
User avatar
Offline

The Ancient One
Joined: Sat Sep 20, 2003 9:40 pm
Posts: 2523
Location: In a dark room...
elchupacabra wrote:
MadMovies looks best to me.


I agree, and it's the only widescreen one. It's 2010, we don't have 16:9 TVs for nothing! :lol:

_________________
Image

Last Release: The Food of the Gods (1976)
NZB: download/file.php?id=436

Coming Soon: Cat's Eye, The Uncanny, Food of the Gods 2, The Devil's Men, Studio 666.


Top
 Profile  
PostPosted: Sat Jul 10, 2010 2:57 pm  Post subject: Re: Rawhead Rex (1986)
User avatar
Offline

Lunatic Of Gods Creation
Joined: Fri Nov 10, 2006 11:56 pm
Posts: 856
Thanks for the comparison EDI :beerchug: I've got the UK disc and gonna find if I can order the French one from somewhere :D


Top
 Profile  
PostPosted: Sat Jul 10, 2010 3:59 pm  Post subject: Re: Rawhead Rex (1986)
User avatar
Offline

Master Of The Dead Donkey
Joined: Mon May 01, 2006 12:31 am
Posts: 684
Location: Just Another Freak... In The Freak Kingdom
Anyone care for a rip of the MadMovies DVD then ?

_________________
Image
[Welcome To The Worst Nightmare Of All... REALITY]


Top
 Profile  
PostPosted: Sun Jul 11, 2010 5:21 pm  Post subject: Re: Rawhead Rex (1986)
User avatar
Offline

The Ancient One
Joined: Sat Oct 20, 2007 10:31 am
Posts: 3424
Location: here
Is this movie any good? :wacky:


Top
 Profile  
PostPosted: Sun Jul 11, 2010 8:17 pm  Post subject: Re: Rawhead Rex (1986)
User avatar
Offline

Master Of The Dead Donkey
Joined: Mon May 01, 2006 12:31 am
Posts: 684
Location: Just Another Freak... In The Freak Kingdom
You're a funny guy ! :D

Seriously, for me, yes, it's a very good movie, but it depend on you only. Give it a try, that's all I can say... :wink:

Sure, Clive Barker didn't like the movie very much, but for me, George did an amazing job. Sure, the creature is not 100% like in the comic book, but it's pretty decent like it is, and the atmosphere is really working. The music is not bad either, and remind you that the creature design is a costume, no CGI here, so good old '80 horror flick, that's what I like the most about it. :P

And honestly, this one could benefit for a remake, but only if it's done by Clive himself, imo, so it could be done like Clive wanted it to be.

_________________
Image
[Welcome To The Worst Nightmare Of All... REALITY]


Top
 Profile  
PostPosted: Mon Jul 12, 2010 8:17 pm  Post subject: Re: Rawhead Rex (1986)
User avatar
Offline

Lunatic Of Gods Creation
Joined: Fri Nov 10, 2006 11:56 pm
Posts: 856
EvilDeadlyImmortal wrote:
Anyone care for a rip of the MadMovies DVD then ?


Yeah, I'll grab a rip 'till I can get my hands on the DVD :beerchug:


Top
 Profile  
PostPosted: Mon Jul 12, 2010 9:25 pm  Post subject: Re: Rawhead Rex (1986)
User avatar
Offline

The Ancient One
Joined: Sat Oct 20, 2007 10:31 am
Posts: 3424
Location: here
I'm in too. :beerchug:


Top
 Profile  
PostPosted: Wed Jul 14, 2010 1:08 am  Post subject: Re: Rawhead Rex (1986)
User avatar
Offline

Master Of The Dead Donkey
Joined: Mon May 01, 2006 12:31 am
Posts: 684
Location: Just Another Freak... In The Freak Kingdom
This image has been resized

http://www.imdb.com/title/tt0091829/

Widescreen version (if it's really widescreen :roll: )
This is a DVDRip of the MadMovies DVD from Europe.

Aspect Ratio: DVDCompare say 1.78:1 but it's written 1.75:1 on the back cover.
Picture Format: Anamorphic

Code:
General
Complete name                    : Rawhead.Rex.1986.DVDRip.Widescreen.XviD.AC3.(MadMovies.DVD.Rip).avi
Format                           : AVI
Format/Info                      : Audio Video Interleave
File size                        : 1.24 GiB
Duration                         : 1h 25mn
Overall bit rate                 : 2 073 Kbps
Writing application              : VirtualDubMod 1.5.10.2 (build 2540/release)
Writing library                  : VirtualDubMod build 2540/release

Video
Format                           : MPEG-4 Visual
Format profile                   : Streaming Video@L1
Format settings, BVOP            : Yes
Format settings, QPel            : No
Format settings, GMC             : No warppoints
Format settings, Matrix          : Default
Codec ID                         : XVID
Codec ID/Hint                    : XviD
Duration                         : 1h 25mn
Bit rate                         : 1 871 Kbps
Width                            : 640 pixels
Height                           : 368 pixels
Display aspect ratio             : 16/9
Frame rate                       : 25.000 fps
Resolution                       : 24 bits
Colorimetry                      : 4:2:0
Scan type                        : Progressive
Bits/(Pixel*Frame)               : 0.318
Stream size                      : 1.12 GiB (90%)
Writing library                  : XviD 50

Audio
Format                           : AC-3
Format/Info                      : Audio Coding 3
Codec ID                         : 2000
Duration                         : 1h 25mn
Bit rate mode                    : Constant
Bit rate                         : 192 Kbps
Channel(s)                       : 2 channels
Channel positions                : L R
Sampling rate                    : 48.0 KHz
Stream size                      : 118 MiB (9%)
Alignment                        : Split accross interleaves
Interleave, duration             : 40 ms (1.00 video frame)
Interleave, preload duration     : 500 ms



This image has been resized This image has been resized
This image has been resized This image has been resized
This image has been resized This image has been resized
This image has been resized This image has been resized
This image has been resized This image has been resized


ed2k: Rawhead.Rex.1986.DVDRip.Widescreen.XviD.AC3.(MadMovies.DVD.Rip).avi  [1.24 Gb] [Stats]

Enjoy ! :beerchug:

_________________
Image
[Welcome To The Worst Nightmare Of All... REALITY]


Top
 Profile  
PostPosted: Wed Jul 14, 2010 2:58 am  Post subject: Re: Rawhead Rex (1986)
User avatar
Offline

Lunatic Of Gods Creation
Joined: Sun Dec 23, 2007 1:14 pm
Posts: 940
:beerchug:


Top
 Profile  
PostPosted: Wed Jul 14, 2010 7:35 am  Post subject: Re: Rawhead Rex (1986)
User avatar
Offline

Lunatic Of Gods Creation
Joined: Fri Nov 10, 2006 11:56 pm
Posts: 856
:beerchug:


Top
 Profile  
Display posts from previous:  Sort by  

All times are UTC [ DST ]

Post new topic Reply to topic  [ 26 posts ]  Go to page 1, 2  Next


Who is online

Users browsing this forum: No registered users and 7 guests


Moderator: Movie Mods

You cannot post new topics in this forum
You cannot reply to topics in this forum
You cannot edit your posts in this forum
You cannot delete your posts in this forum
You cannot post attachments in this forum

Search for:
Jump to:  
cron
Frontpage / Forums / Scifi


What's blood for, if not for shedding?