Why not register?


Post new topic Reply to topic  [ 5 posts ] 

All times are UTC [ DST ]

Author Message
PostPosted: Thu Apr 02, 2009 5:05 pm  Post subject: Night Skies (2007)
User avatar
Offline

The Devil, Probably
Joined: Wed Jul 18, 2007 8:37 am
Posts: 1859
Location: Rottencuntville
originally posted by "hammers66"

This image has been resized

http://www.imdb.com/title/tt0460883/

Quote:
Genre: Drama / Horror / Thriller

Tagline: Now You Will Believe...

Plot Summary: On March 13th, 1997 one of the largest UFO sightings ever recorded took place across the southwestern United States. The event became known as the 'Phoenix Lights' and was witnessed by community leaders, members of law enforcement, as well as thousands of everyday citizens. This true story, based on transcripts from actual hypnosis-therapy sessions, finally reveals what happened after the infamous incident ended and how six people, stranded by chance on a forgotten road, encountered more than just lights in the sky.

.##########.                  
##############.
################
##################
. . ##################
.## ##################
#########.. . ################## .
... . .######### . . ##################
...########## ##################
. .##########.. .. .################.
.....########## . ##############.
.. ##########.. .############.
. . ########## . . .. ..######## #
.. ########## . #
. ############. . .##
####### . .##### -######## ### ######X #####.. .############
########: ####### -######## ### ######## #######.
######### -########/######## ### ########M -######## . ########.
######### . . . ####,###$:########.### . #########.####-###$ ###########
####..### ###- /###.####, #. ###: ### .####### ### /### ####-.#. .##############.
####.#### ###- ./### .####@.. ###: ### -######### ### ,#### .####@. .################
#########. ###- .;### @##### ###: ### ########### #########. ######. .##################
########@ ###- /### ######.. ###: ### .#### #### ######## ######. ###################.
#######. ###- /### :##### ###: ### -###########. ####### .-##### .####################
######## ###/ /### .#### ###: ### ,########### #######. .#### #####################.
########. #### ####..##...### ###: ### ..### .. ###-#### .##. .### ######################
####:#### #### .####.####/#### ###: #######.#### .##=. ###.#### -####+#### ######################
####.#### /########/.######### ###: ####### ##########:. ### -####.######### #######################.
#### -####. ########. .#######/ ###/ ####### .######### ### #### .#######; #######################
#### .#### ###### .##### . ###/ .####### .#####/ .### .#### .##### .#######################
############# . . .. .#######################
. . ########################### . . . #######################
. . ############################# . #######################
####################...... ######################
.. . ######### ######################
.#####.. ###. #####################.
##########. ..#. .####################
.############ ###.. .###################.
##############. ..#### .##################.
##############. . . ####. #################
.##############. .##### . ###############.
. ##############. .. .##### ############
,##############. #####.. #########.
##############. ..#####. ..-
.############- ##### . .
.###############....
########.
.. . ..


Title: Night.Skies.2007.DVDRiP.XViD-RUSTLERS
Date: 01/08-07


IMDBiNFO: http://www.imdb.com/title/tt0460883/
iNFO
RESULUTiON: 608x336
Audio Bitrate: 128 kbps, MP3
Video Quality: 1055 kbps, XviD
Frame Rate: 25 fps

CONTACT: We are currently accepting members
who can supply pre-retail dvds, dvd/vhs screeners,
direct audio/dts audio, telecine/telesync video,
homemade cams, or silvers.
Got what we need? Mail us at:
rustycam@hush.ai
GREETZ to our friends in CAMERA


Code:
General
Complete name                    : D:\Emule\Night.Skies.2007.DVDRiP.XViD-RUSTLERS.[sharethefiles.com].avi
Format                           : AVI
Format/Info                      : Audio Video Interleave
File size                        : 696 MiB
Duration                         : 1h 21mn
Overall bit rate                 : 1 196 Kbps
Writing library                  : VirtualDub build 0/release

Video
Format                           : MPEG-4 Visual
Format profile                   : Streaming Video@L1
Format settings, BVOP            : Yes
Format settings, QPel            : No
Format settings, GMC             : No warppoints
Format settings, Matrix          : Default
Muxing mode                      : Packed bitstream
Codec ID                         : XVID
Codec ID/Hint                    : XviD
Duration                         : 1h 21mn
Bit rate                         : 1 055 Kbps
Width                            : 608 pixels
Height                           : 336 pixels
Display aspect ratio             : 16/9
Frame rate                       : 25.000 fps
Resolution                       : 24 bits
Colorimetry                      : 4:2:0
Scan type                        : Progressive
Bits/(Pixel*Frame)               : 0.207
Stream size                      : 614 MiB (88%)
Writing library                  : XviD 1.0.3 (UTC 2004-12-20)

Audio
Format                           : MPEG Audio
Format version                   : Version 1
Format profile                   : Layer 3
Codec ID                         : 55
Codec ID/Hint                    : MP3
Duration                         : 1h 21mn
Bit rate mode                    : Variable
Bit rate                         : 128 Kbps
Channel(s)                       : 2 channels
Sampling rate                    : 48.0 KHz
Resolution                       : 16 bits
Stream size                      : 74.5 MiB (11%)
Alignment                        : Aligned on interleaves
Interleave, duration             : 24 ms (0.60 video frame)
Interleave, preload duration     : 488 ms


Image
Image
Image
Image
Image
Image

ed2k: Night.Skies.2007.DVDRiP.XViD-RUSTLERS.avi  [696.08 Mb] [Stats]

_________________
Image
Life|over | Stockholm | Nackskott | MS Salmonella | I Like BDSM


Top
 Profile  
PostPosted: Thu Apr 02, 2009 5:07 pm  Post subject: Re: Night Skies (2007)
User avatar
Offline

The Ancient One
Joined: Mon Jan 22, 2007 9:13 pm
Posts: 7589
Why does that cover image have to be so F*ING HUGE???

_________________
Image
THIRD SEAL MEANS FAMINE


Top
 Profile  
PostPosted: Thu Apr 16, 2009 10:28 pm  Post subject: Re: Night Skies (2007)
User avatar
Offline

Skull Full Of Maggots
Joined: Thu Aug 21, 2008 9:37 pm
Posts: 50
Thanks for posting this here, as well.

_________________
Image


Last edited by Andrei on Tue Aug 17, 2010 8:35 pm, edited 1 time in total.

Top
 Profile  
PostPosted: Tue May 26, 2009 4:20 pm  Post subject: Re: Night Skies (2007)
Offline

Skull Full Of Maggots
Joined: Fri Apr 11, 2008 1:30 am
Posts: 36
mmmmmmmm melted cheese!! :D


Top
 Profile  
PostPosted: Sun Oct 11, 2009 8:11 pm  Post subject: Re: Night Skies (2007)
User avatar
Offline

Mummified In Barbed Wire
Joined: Sat Aug 14, 2004 2:23 pm
Posts: 135
Location: St Louis, MO
Thanks for sharing

_________________
Don't InterrupT me While I'm talkin to MyselF


Top
 Profile  
Display posts from previous:  Sort by  

All times are UTC [ DST ]

Post new topic Reply to topic  [ 5 posts ] 


Who is online

Users browsing this forum: No registered users and 1 guest


Moderator: Movie Mods

You cannot post new topics in this forum
You cannot reply to topics in this forum
You cannot edit your posts in this forum
You cannot delete your posts in this forum
You cannot post attachments in this forum

Search for:
Jump to:  
cron
Frontpage / Forums / Scifi


What's blood for, if not for shedding?