Why not register?


Post new topic Reply to topic  [ 4 posts ] 

All times are UTC [ DST ]

Author Message
PostPosted: Tue Jun 30, 2009 9:39 am  Post subject: Future War (1997) (Action/Fantasy/Sci-Fi/Thriller) (DVDrip)
Offline

Skull Full Of Maggots
Joined: Sun Aug 20, 2006 3:27 pm
Posts: 49
Image

http://www.imdb.com/title/tt0113135/

Code:
A race of evil cyborgs kidnap humans from Earth's future to use as slaves, and take dinosaurs from the past to use as trackers. One of their slaves, the Runaway, escapes and makes his way to present-day Los Angeles. There he must fend off the cyborgs and their trackers, the police, and the government, befriended by a prostitute-turned-nun who runs a halfway house.


Code:
Video
ID                               : 0
Format                           : MPEG-4 Visual
Format profile                   : Streaming Video@L1
Format settings, BVOP            : Yes
Format settings, QPel            : No
Format settings, GMC             : No warppoints
Format settings, Matrix          : Custom
Codec ID                         : XVID
Codec ID/Hint                    : XviD
Duration                         : 1h 21mn
Bit rate                         : 1 068 Kbps
Width                            : 544 pixels
Height                           : 400 pixels
Display aspect ratio             : 4/3
Frame rate                       : 25.000 fps
Resolution                       : 24 bits
Colorimetry                      : 4:2:0
Scan type                        : Progressive
Bits/(Pixel*Frame)               : 0.196
Stream size                      : 625 MiB (84%)
Writing library                  : XviD 1.2.1 (UTC 2008-12-04)

Audio
ID                               : 1
Format                           : AC-3
Format/Info                      : Audio Coding 3
Codec ID                         : 2000
Duration                         : 1h 21mn
Bit rate mode                    : Constant
Bit rate                         : 192 Kbps
Channel(s)                       : 2 channels
Channel positions                : L R
Sampling rate                    : 48.0 KHz
Stream size                      : 112 MiB (15%)
Alignment                        : Split accross interleaves
Interleave, duration             : 40 ms (1.00 video frame)
Interleave, preload duration     : 500 ms


ImageImage
ImageImage
Image
ImageImage
ImageImage
Image

ed2k: Future.War.(1997).FS.DVDrip.XviD.avi  [742.68 Mb] [Stats]

to be honest...i tried the transloading process first... :wacky: :D so happy to have dead-donkey back :beerchug:


Top
 Profile  
PostPosted: Tue Jun 30, 2009 9:52 am  Post subject: Re: Future War (1997) (Action/Fantasy/Sci-Fi/Thriller) (DVDrip)
User avatar
Offline

Demon Of The Abyss
Joined: Tue Jun 14, 2005 8:01 pm
Posts: 1130
oooh CLICK :drunk:

_________________
Got milk?


Top
 Profile  
PostPosted: Tue Jun 30, 2009 6:38 pm  Post subject: Re: Future War (1997) (Action/Fantasy/Sci-Fi/Thriller) (DVDrip)
Offline

Dead But Dreaming
Joined: Sat Jan 31, 2009 8:29 am
Posts: 289
:suicide:


Top
 Profile  
PostPosted: Thu Jul 02, 2009 9:54 pm  Post subject: Re: Future War (1997) (Action/Fantasy/Sci-Fi/Thriller) (DVDrip)
User avatar
Offline

The Ancient One
Joined: Mon Jan 22, 2007 9:13 pm
Posts: 7596
Wow, thanks! This one has been sitting incomplete on my PC for years! Every bad movie lover should see this Terminator rip-off!

_________________
Image
THIRD SEAL MEANS FAMINE


Top
 Profile  
Display posts from previous:  Sort by  

All times are UTC [ DST ]

Post new topic Reply to topic  [ 4 posts ] 


Who is online

Users browsing this forum: No registered users and 2 guests


Moderator: Movie Mods

You cannot post new topics in this forum
You cannot reply to topics in this forum
You cannot edit your posts in this forum
You cannot delete your posts in this forum
You cannot post attachments in this forum

Search for:
Jump to:  
cron
Frontpage / Forums / Scifi


What's blood for, if not for shedding?