Why not register?


Post new topic Reply to topic  [ 1 post ] 

All times are UTC [ DST ]

Author Message
PostPosted: Wed Oct 06, 2010 7:24 pm  Post subject: Born Of Earth (2008)
Reply with quote
User avatar
Offline

The Ancient One
Joined: Mon Jan 22, 2007 9:13 pm
Posts: 7629
From FH:

Born Of Earth (2008) DVDRiP-XViD-LKRG

Image

Quote:
Genre : Horror

Plot : Over centuries humans have been mysteriously disappearing with no explanations, just hushed whispers in the dark. On the surface Prophet Hills seems like a perfect place to live and raise a family, but Danny Kessler (Baldwin) has seen better days. This is one man's journey to find the culprit of the ultimate sacrifice he's endured. He must face his demons and go back to the place that has haunted him. He must convince family, friends and townspeople that something is not right in Prophet Hills. He must make them believe that something evil is living beneath their own backyards.


Code:
Video
ID                             : 0
Format                         : MPEG-4 Visual
Format profile                 : Advanced Simple@L5
Format settings, BVOP            : Yes
Format settings, QPel            : No
Format settings, GMC           : No warppoints
Format settings, Matrix          : Default (H.263)
Muxing mode                      : Packed bitstream
Codec ID                       : XVID
Codec ID/Hint                    : XviD
Duration                       : 1h 20mn
Bit rate                       : 1 448 Kbps
Width                            : 716 pixels
Height                         : 396 pixels
Display aspect ratio           : 16:9
Frame rate                     : 25.000 fps
Resolution                     : 8 bits
Colorimetry                      : 4:2:0
Scan type                        : Progressive
Bits/(Pixel*Frame)             : 0.204
Stream size                      : 834 MiB (88%)
Writing library                  : XviD 1.2.1 (UTC 2008-12-04)

Audio
ID                             : 1
Format                         : AC-3
Format/Info                      : Audio Coding 3
Codec ID                       : 2000
Duration                       : 1h 20mn
Bit rate mode                    : Constant
Bit rate                       : 192 Kbps
Channel(s)                     : 2 channels
Channel positions                : L R
Sampling rate                    : 48.0 KHz
Stream size                      : 111 MiB (12%)
Alignment                        : Aligned on interleaves
Interleave, duration           : 40 ms (1.00 video frame)
Interleave, preload duration   : 512 ms


http://www.imdb.com/title/tt1132438/

Image

Image

Image

Image

ed2k: Born.To.Earth.2008.DVDRiP.XViD-LKRG.avi  [950.69 Mb] [Stats]

_________________
Image
THIRD SEAL MEANS FAMINE


Top
 Profile  
Display posts from previous:  Sort by  

All times are UTC [ DST ]

Post new topic Reply to topic  [ 1 post ] 


Who is online

Users browsing this forum: No registered users and 2 guests


Moderator: Movie Mods

You cannot post new topics in this forum
You cannot reply to topics in this forum
You cannot edit your posts in this forum
You cannot delete your posts in this forum
You cannot post attachments in this forum

Search for:
Jump to:  
cron
Frontpage / Forums / Scifi


What's blood for, if not for shedding?