Why not register?


Post new topic Reply to topic  [ 4 posts ] 

All times are UTC [ DST ]

Author Message
PostPosted: Tue Aug 17, 2010 7:01 pm  Post subject: Neighbor (2009)
Reply with quote
User avatar
Offline

Site Admin
Joined: Sat Nov 02, 2002 1:35 am
Posts: 19692
Location: En España
Image

http://www.imdb.com/title/tt1362103/

Quote:
Genre :Horror / Thriller

Tagline : Fear your neighbor.

Plot :
A mysterious new girl arrives in posh suburban neighborhood and quickly sets out to terrorize the town. As she starts breaking into homes and torturing the occupants, they begin to realize that she isn't just another girl next door.


Code:
Team QCF
where Quality always Comes First

RELEASE iNFORMATiON

Neighbor.2009.DVDRiP.XviD-QCF.avi

Release Date: 2010-07-16
Retail Date: 2010-07-27
Runtime: 1hr 25mn
Size: 700mb
Video: 640x272 (2.35)
Audio: mp3
Language: English
Link: Notes: http://www.imdb.com/title/tt1362103/

NOTES & GROUP NEWS

Looking for:
Pre-Retail suppliers
PD/HD cappers/encoders
Private Link EU sites
Private boxes for group usage
grep, sed, and awk experts

GREETS
To all the true prestreet retail groups
and to the great HQ tv crews


Code:
Format                           : AVI
Format/Info                      : Audio Video Interleave
File size                        : 697 MiB
Duration                         : 1h 25mn
Overall bit rate                 : 1 136 Kbps
Writing application              : VirtualDubMod 1.5.10.2 (build 2540/release)
Writing library                  : VirtualDubMod build 2540/release

Video
ID                               : 0
Format                           : MPEG-4 Visual
Format profile                   : Advanced Simple@L5
Format settings, BVOP            : Yes
Format settings, QPel            : No
Format settings, GMC             : No warppoints
Format settings, Matrix          : Default (H.263)
Codec ID                         : XVID
Codec ID/Hint                    : XviD
Duration                         : 1h 25mn
Bit rate                         : 961 Kbps
Width                            : 640 pixels
Height                           : 272 pixels
Display aspect ratio             : 2.35:1
Frame rate                       : 23.976 fps
Color space                      : YUV
Chroma subsampling               : 4:2:0
Bit depth                        : 8 bits
Scan type                        : Progressive
Bits/(Pixel*Frame)               : 0.230
Stream size                      : 590 MiB (85%)
Writing library                  : XviD 1.2.1 (UTC 2008-12-04)

Audio
ID                               : 1
Format                           : MPEG Audio
Format version                   : Version 1
Format profile                   : Layer 3
Mode                             : Joint stereo
Mode extension                   : MS Stereo
Codec ID                         : 55
Codec ID/Hint                    : MP3
Duration                         : 1h 25mn
Bit rate mode                    : Variable
Bit rate                         : 121 Kbps
Nominal bit rate                 : 128 Kbps
Channel(s)                       : 2 channels
Sampling rate                    : 48.0 KHz
Stream size                      : 74.3 MiB (11%)
Alignment                        : Aligned on interleaves
Writing library                  : LAME3.98r
Encoding settings                : -m j -V 4 -q 3 -lowpass 17 --abr 128


http://www.imdb.com/title/tt1362103/

Image

Image

Image

Image

ed2k: Neighbor.2009.dvdrip.xvid-qcf.avi  [700.86 Mb] [Stats]

_________________
Mouse nipple for the win! Trackpoint or death!


Top
 Profile  
PostPosted: Tue Aug 17, 2010 7:01 pm  Post subject: Re: Neighbor (2009)
Reply with quote
User avatar
Offline

Site Admin
Joined: Sat Nov 02, 2002 1:35 am
Posts: 19692
Location: En España
This is about a young boys attempt to correctly spell Neighbour

_________________
Mouse nipple for the win! Trackpoint or death!


Top
 Profile  
PostPosted: Sat Sep 25, 2010 1:58 pm  Post subject: Re: Neighbor (2009)
Reply with quote
User avatar
Offline

The Ancient One
Joined: Mon Jan 22, 2007 9:13 pm
Posts: 7629
Images broken.

_________________
Image
THIRD SEAL MEANS FAMINE


Top
 Profile  
PostPosted: Sun Oct 03, 2010 4:45 am  Post subject: Re: Neighbor (2009)
Reply with quote
Request Territory
User avatar
Offline

Request Territory
Joined: Sun Feb 15, 2009 3:12 pm
Posts: 12
Location: Tromaville
Guys, this thread should get a proper make-over. Seriously this flick is quite good and the main character is a bitch with a capital B. Highly recommended (and no its not just torture porn as some are saying).

Thanks ! :voodoo:

_________________
ImageImage


Top
 Profile  
Display posts from previous:  Sort by  

All times are UTC [ DST ]

Post new topic Reply to topic  [ 4 posts ] 


Who is online

Users browsing this forum: No registered users and 29 guests


Moderator: Movie Mods

You cannot post new topics in this forum
You cannot reply to topics in this forum
You cannot edit your posts in this forum
You cannot delete your posts in this forum
You cannot post attachments in this forum

Search for:
Jump to:  
Frontpage / Forums / Scifi


What's blood for, if not for shedding?