Why not register?


Post new topic Reply to topic  [ 3 posts ] 

All times are UTC [ DST ]

Author Message
PostPosted: Tue Nov 01, 2016 11:03 am  Post subject: Phantasm 5: Ravager (2016)
Reply with quote
User avatar
Offline

The Ancient One
Joined: Sat Oct 20, 2007 10:31 am
Posts: 3450
Location: here
Phantasm V: Ravager

Image

http://www.IMDb.com/title/tt3627704/


Quote:
Genres: Fantasy, Horror

The fifth episode in the Phantasm series. In a world already heavily destroyed by the Tall Man and his minions Reggie is travelling through dimensions and time to find Mike and battle the Tall Man.


Code:
General
Complete name                            : Phantasm.Ravager.2016.WEB-DL.x264-FGT.mp4
Format                                   : MPEG-4
Format profile                           : Base Media
Codec ID                                 : isom
File size                                : 753 MiB
Duration                                 : 1h 25mn
Overall bit rate                         : 1 232 Kbps
Movie name                               : Phantasm.Ravager.2016.WEB-DL.x264-FGT
Writing application                      : Lavf57.19.100
Comment                                  : Phantasm.Ravager.2016.WEB-DL.x264-FGT

Video
ID                                       : 1
Format                                   : AVC
Format/Info                              : Advanced Video Codec
Format profile                           : High@L3.1
Format settings, CABAC                   : Yes
Format settings, ReFrames                : 5 frames
Codec ID                                 : avc1
Codec ID/Info                            : Advanced Video Coding
Duration                                 : 1h 25mn
Bit rate                                 : 1 100 Kbps
Width                                    : 720 pixels
Height                                   : 400 pixels
Display aspect ratio                     : 16:9
Frame rate mode                          : Constant
Frame rate                               : 23.976 fps
Color space                              : YUV
Chroma subsampling                       : 4:2:0
Bit depth                                : 8 bits
Scan type                                : Progressive
Bits/(Pixel*Frame)                       : 0.159
Stream size                              : 672 MiB (89%)
Title                                    : Phantasm.Ravager.2016.WEB-DL.x264-FGT
Writing library                          : x264 core 148 r2694 3b70645
Encoding settings                        : cabac=1 / ref=5 / deblock=1:-2:-2 / analyse=0x3:0x113 / me=umh / subme=8 / psy=1 / psy_rd=0.90:0.00 / mixed_ref=1 / me_range=16 / chroma_me=1 / trellis=1 / 8x8dct=1 / cqm=0 / deadzone=21,11 / fast_pskip=1 / chroma_qp_offset=-2 / threads=24 / lookahead_threads=2 / sliced_threads=0 / nr=0 / decimate=1 / interlaced=0 / bluray_compat=0 / constrained_intra=0 / bframes=3 / b_pyramid=2 / b_adapt=2 / b_bias=0 / direct=3 / weightb=1 / open_gop=0 / weightp=2 / keyint=250 / keyint_min=25 / scenecut=40 / intra_refresh=0 / rc_lookahead=50 / rc=abr / mbtree=1 / bitrate=1100 / ratetol=1.0 / qcomp=0.60 / qpmin=0 / qpmax=69 / qpstep=4 / vbv_maxrate=31250 / vbv_bufsize=31250 / nal_hrd=none / filler=0 / ip_ratio=1.40 / aq=1:1.00
Language                                 : English

Audio
ID                                       : 2
Format                                   : AAC
Format/Info                              : Advanced Audio Codec
Format profile                           : LC
Codec ID                                 : 40
Duration                                 : 1h 25mn
Duration_LastFrame                       : 43ms
Bit rate mode                            : Constant
Bit rate                                 : 128 Kbps
Channel(s)                               : 2 channels
Channel positions                        : Front: L R
Sampling rate                            : 48.0 KHz
Compression mode                         : Lossy
Stream size                              : 78.2 MiB (10%)
Title                                    : Phantasm.Ravager.2016.WEB-DL.x264-FGT
Language                                 : English



Image

Image

Image

Image

ed2k: Phantasm.Ravager.2016.WEB-DL.x264-FGT.mp4  [753.44 Mb] [Stats]


Top
 Profile  
PostPosted: Wed Nov 02, 2016 8:58 pm  Post subject: Re: Phantasm 5: Ravager (2016)
Reply with quote
User avatar
Offline

Will Tear Your Soul Apart
Joined: Thu Oct 14, 2004 11:45 am
Posts: 633
Location: Neverending Lane, Kerovnia
Wow! So this actually does exist??? :o :o :o
Came here to peek a look after years and look what the cat dragged out!
Thank you, what a surprise! :rock:

_________________
ImageImage
ImageImage
ImageImage
Kafka... Kafka, Kafka, Kafka... Is that your real Name?


Top
 Profile  
PostPosted: Fri Nov 04, 2016 6:58 pm  Post subject: Re: Phantasm 5: Ravager (2016)
Reply with quote
User avatar
Offline

The Ancient One
Joined: Sat Oct 20, 2007 10:31 am
Posts: 3450
Location: here
Hey weezee! As a phan I was following this episode's development too. It came out this year. Just don't have too high expectations. :wink:


Top
 Profile  
Display posts from previous:  Sort by  

All times are UTC [ DST ]

Post new topic Reply to topic  [ 3 posts ] 


Who is online

Users browsing this forum: No registered users and 3 guests


Moderator: Movie Mods

You cannot post new topics in this forum
You cannot reply to topics in this forum
You cannot edit your posts in this forum
You cannot delete your posts in this forum
You cannot post attachments in this forum

Search for:
Jump to:  
cron
Frontpage / Forums / Scifi


What's blood for, if not for shedding?