Why not register?


Post new topic Reply to topic  [ 3 posts ] 

All times are UTC [ DST ]

Author Message
PostPosted: Sun Apr 04, 2010 7:55 pm  Post subject: Madness (2010)
Reply with quote
User avatar
Offline

The Ancient One
Joined: Mon Jan 22, 2007 9:13 pm
Posts: 7636
From FH:

Madness (2010) DVDRiP-XViD-SPRiNTER

Image

Quote:
Genre : Horror

Plot : When they stop at a country gas station on the way to a cheerleading competition,
Jenna and Tara pick up Chad and Oliver, whose car has conked out. But their cheerful mood turns to terror as a group of sadistic killers stalks and captures them


Code:
SPRiNTER proudly presents...

Madness.2010.READNFO.DVDRip.XviD-SPRiNTER
http://www.imdb.com/title/tt1602093
Subtitles: N/A

Date: 2010.04

Director: Sonny Laguna & David Liljeblad
Genre: Horror
Plot:  When they stop at a country gas station on the way to a cheerleading competition,
Jenna and Tara pick up Chad and Oliver, whose car has conked out. But their
cheerful mood turns to terror as a group of sadistic killers stalks and captures
them

Cast

Anna Adolfsson ...  Susana
Victoria Bloom ...  Jenna Mckenzie
Yohanna Idha ...  Tara Harper
Sonny Laguna ...  Aaron
David Liljeblad ...  Drake
Andreas Vaehi ...  Chad Fox
Max Wallmo ...  Oliver Ransom
Jonas Wiik ...  Bob
Tommy Wiklund ...  One-eye

Release notes

Its english spoken flick with very few foreign parts but source didnt
have subs for those parts

Greetings

NTX aAF FiCO HNR CiNEFiLE AEN HUMANiSM

Details

Format                          : AVI
Format/Info                      : Audio Video Interleave
File size                        : 698 MiB
Duration                        : 1h 33mn
Overall bit rate                : 1 041 Kbps
Writing application              : Nandub v1.0rc2
Writing library                  : Nandub build 1852/release

Video
ID                              : 0
Format                          : MPEG-4 Visual
Format profile                  : Advanced SimpleL5
Format settings, BVOP            : No
Format settings, QPel            : No
Format settings, GMC            : No warppoints
Format settings, Matrix          : Default (H.263
Codec ID                        : XVID
Codec ID/Hint                    : XviD
Duration                        : 1h 33mn
Bit rate                        : 896 Kbps
Width                            : 608 pixels
Height                          : 256 pixels
Display aspect ratio            : 2.35:1
Frame rate                      : 24.975 fps
Resolution                      : 8 bits
Colorimetry                      : 4:2:0
Scan type                        : Progressive
Bits/(PixelFrame)              : 0.231
Stream size                      : 601 MiB (86
Writing library                  : XviD 1.1.2 (UTC 2006-11-01

Audio
ID                              : 1
Format                          : MPEG Audio
Format version                  : Version 1
Format profile                  : Layer 3
Codec ID                        : 55
Codec ID/Hint                    : MP3
Duration                        : 1h 33mn
Bit rate mode                    : Variable
Bit rate                        : 132 Kbps
Minimum bit rate                : 80.0 Kbps
Channel(s)                      : 2 channels
Sampling rate                    : 48.0 KHz
Stream size                      : 88.4 MiB (13
Alignment                        : Aligned on interleaves
Interleave, duration            : 24 ms (0.60 video frame
Interleave, preload duration    : 300 ms
Writing library                  : LAME3.95
Encoding settings                : -m s -V 5 -q 3 -lowpass 17 --vbr-old -b 80


http://www.imdb.com/title/tt1602093/

Image

Image

Image

Image

ed2k: Madness.2010.DVDRiP.XViD-SPRiNTER.avi  [698.12 Mb] [Stats]

LQ for blocky/blurry picture.

_________________
Image
THIRD SEAL MEANS FAMINE


Top
 Profile  
PostPosted: Wed Apr 07, 2010 4:54 am  Post subject: Re: Madness (2010)
Reply with quote
Offline

Dead But Dreaming
Joined: Sat Jan 31, 2009 8:29 am
Posts: 289
Looks crappy

Thanks :beerchug:


Top
 Profile  
PostPosted: Wed May 05, 2010 9:37 pm  Post subject: Re: Madness (2010)
Reply with quote
User avatar
Offline

The Devil, Probably
Joined: Wed Jul 18, 2007 8:37 am
Posts: 1859
Location: Rottencuntville
Slayer wrote:
LQ for blocky/blurry picture.

yea, kids, dont make movies with your cells

_________________
Image
Life|over | Stockholm | Nackskott | MS Salmonella | I Like BDSM


Top
 Profile  
Display posts from previous:  Sort by  

All times are UTC [ DST ]

Post new topic Reply to topic  [ 3 posts ] 


Who is online

Users browsing this forum: No registered users and 10 guests


Moderator: Movie Mods

You cannot post new topics in this forum
You cannot reply to topics in this forum
You cannot edit your posts in this forum
You cannot delete your posts in this forum
You cannot post attachments in this forum

Search for:
Jump to:  
cron
Frontpage / Forums / Scifi


What's blood for, if not for shedding?